(Classical) Wolfgang Amadeus Mozart - Exsultate, jubilate • Dulcissimus convivium • Laudate Dominum • Voi avete un cor fedele • Basta, vincesti • A questo seno deh vieni (Elly Ameling, Raymond Leppard, 1969) - 1989, FLAC (tracks+.cue) lossless


 

[Цитировать]

Wolfgang Amadeus Mozart | Вольфганг Амадей Моцарт
(1756–1791)



Exsultate, jubilate | Arien


Elly Ameling soprano
English Chamber Orchestra
Raymond Leppard conductor


Жанр: Classical / Vocal
Дата и место записи: London, August 1969
Формат записи: ADD, Stereo
Год издания диска: 1989
Издатель (лейбл): Philips
Номер по каталогу: 426 072-2
Аудиокодек: FLAC
Тип рипа: tracks+.cue
Битрейт аудио: lossless
Продолжительность: 51:16
Наличие сканов в содержимом раздачи: да (front/back/CD)
Источник: What.CD
Релизёр: yayosalva


Tracklist / Треклист
«Exsultate, jubilate», KV 165 - 17:04
«Exsultate, jubilate» - 4:58
  • «Fulget amica dies» - 0:54
  • «Tu virginum corona» - 8:24
  • «Alleluja» - 2:48
    Litaniae de venerabili altaris sacramento, KV 243
    «Dulcissimus convivium» - 4:55
    Vesperae de Dominica, KV 321
    «Laudate Dominum» - 4:50
    Aria «Voi avete un cor fedele», KV 217 - 7:47
  • Recitativo ed Aria «Basta, vincesti». — «Ah non lasciarmi, nò, bell'idol mio», KV 486a - 7:50
  • Recitativo e Rondo «A questo seno deh vieni». — «Or che il cielo a me ti rende», KV 374 - 8:50

    -

    EAC log / Отчёт EAC

    Exact Audio Copy V1.0 beta 3 from 29. August 2011
    EAC extraction logfile from 23. May 2015, 13:04
    Mozart / Exsultate Jubilate
    Used drive : HL-DT-STDVDRAM GH24NS90 Adapter: 0 ID: 0
    Read mode : Secure
    Utilize accurate stream : Yes
    Defeat audio cache : Yes
    Make use of C2 pointers : No
    Read offset correction : 6
    Overread into Lead-In and Lead-Out : No
    Fill up missing offset samples with silence : Yes
    Delete leading and trailing silent blocks : No
    Null samples used in CRC calculations : Yes
    Used interface : Native Win32 interface for Win NT & 2000
    Gap handling : Appended to previous track
    Used output format : User Defined Encoder
    Selected bitrate : 896 kBit/s
    Quality : High
    Add ID3 tag : No
    Command line compressor : C:\Program Files (x86)\Exact Audio Copy\Flac\flac.exe
    Additional command line options : -8 -V -T "ARTIST=%artist%" -T "TITLE=%title%" -T "ALBUM=%albumtitle%" -T "DATE=%year%" -T "TRACKNUMBER=%tracknr%" -T "GENRE=%genre%" -T "PERFORMER=%albuminterpret%" -T "COMPOSER=%composer%" %haslyrics%--tag-from-file=LYRICS="%lyricsfile%"%haslyrics% -T "ALBUMARTIST=%albumartist%" -T "DISCNUMBER=%cdnumber%" -T "TOTALDISCS=%totalcds%" -T "TOTALTRACKS=%numtracks%" -T "COMMENT=%comment%" %source% -o %dest%
    TOC of the extracted CD
    Track | Start | Length | Start sector | End sector
    ---------------------------------------------------------
    1 | 0:00.33 | 4:58.00 | 33 | 22382
    2 | 4:58.33 | 0:54.00 | 22383 | 26432
    3 | 5:52.33 | 8:24.37 | 26433 | 64269
    4 | 14:16.70 | 2:47.38 | 64270 | 76832
    5 | 17:04.33 | 4:55.00 | 76833 | 98957
    6 | 21:59.33 | 4:50.00 | 98958 | 120707
    7 | 26:49.33 | 7:47.00 | 120708 | 155732
    8 | 34:36.33 | 7:50.00 | 155733 | 190982
    9 | 42:26.33 | 8:50.00 | 190983 | 230732
    Track 1
    Filename F:\Espacio de trabajo\Torrent\EAC Rips\W.A. Mozart - Exultate jubilate - Raymond Leppard - CD 1989 (FLAC)\01 KV165- Exsultate Jubilate.wav
    Pre-gap length 0:00:02.44
    Peak level 97.4 %
    Extraction speed 1.1 X
    Track quality 100.0 %
    Test CRC C4864CB9
    Copy CRC C4864CB9
    Accurately ripped (confidence 3) [441C1077] (AR v2)
    Copy OK
    Track 2
    Filename F:\Espacio de trabajo\Torrent\EAC Rips\W.A. Mozart - Exultate jubilate - Raymond Leppard - CD 1989 (FLAC)\02 KV165- Fulget amica dies.wav
    Pre-gap length 0:00:02.00
    Peak level 61.7 %
    Extraction speed 0.7 X
    Track quality 100.0 %
    Test CRC 5D4BFE1C
    Copy CRC 5D4BFE1C
    Accurately ripped (confidence 3) [D805BDA2] (AR v2)
    Copy OK
    Track 3
    Filename F:\Espacio de trabajo\Torrent\EAC Rips\W.A. Mozart - Exultate jubilate - Raymond Leppard - CD 1989 (FLAC)\03 KV165- Tu virginum corona.wav
    Peak level 73.0 %
    Extraction speed 1.3 X
    Track quality 100.0 %
    Test CRC 25E08D5B
    Copy CRC 25E08D5B
    Accurately ripped (confidence 3) [A97C09D0] (AR v2)
    Copy OK
    Track 4
    Filename F:\Espacio de trabajo\Torrent\EAC Rips\W.A. Mozart - Exultate jubilate - Raymond Leppard - CD 1989 (FLAC)\04 KV165- Alleluja.wav
    Peak level 90.9 %
    Extraction speed 1.3 X
    Track quality 100.0 %
    Test CRC 4D886394
    Copy CRC 4D886394
    Accurately ripped (confidence 3) [83C68FB2] (AR v2)
    Copy OK
    Track 5
    Filename F:\Espacio de trabajo\Torrent\EAC Rips\W.A. Mozart - Exultate jubilate - Raymond Leppard - CD 1989 (FLAC)\05 KV243- Dulcissimum convivium.wav
    Pre-gap length 0:00:08.00
    Peak level 75.5 %
    Extraction speed 1.5 X
    Track quality 100.0 %
    Test CRC 01F33B3E
    Copy CRC 01F33B3E
    Accurately ripped (confidence 3) [7D2C2914] (AR v2)
    Copy OK
    Track 6
    Filename F:\Espacio de trabajo\Torrent\EAC Rips\W.A. Mozart - Exultate jubilate - Raymond Leppard - CD 1989 (FLAC)\06 KV231- Laudate Dominum.wav
    Pre-gap length 0:00:05.00
    Peak level 82.1 %
    Extraction speed 1.6 X
    Track quality 100.0 %
    Test CRC CDAC6488
    Copy CRC CDAC6488
    Accurately ripped (confidence 3) [4ED093FB] (AR v2)
    Copy OK
    Track 7
    Filename F:\Espacio de trabajo\Torrent\EAC Rips\W.A. Mozart - Exultate jubilate - Raymond Leppard - CD 1989 (FLAC)\07 KV217- Voi averte un cor fedele.wav
    Pre-gap length 0:00:06.00
    Peak level 99.0 %
    Extraction speed 1.8 X
    Track quality 100.0 %
    Test CRC 0732CF94
    Copy CRC 0732CF94
    Accurately ripped (confidence 3) [EB5B4A67] (AR v2)
    Copy OK
    Track 8
    Filename F:\Espacio de trabajo\Torrent\EAC Rips\W.A. Mozart - Exultate jubilate - Raymond Leppard - CD 1989 (FLAC)\08 KV406a- Basta, vincesti....wav
    Pre-gap length 0:00:06.00
    Peak level 98.1 %
    Extraction speed 2.0 X
    Track quality 100.0 %
    Test CRC 4D89559D
    Copy CRC 4D89559D
    Accurately ripped (confidence 3) [54B01151] (AR v2)
    Copy OK
    Track 9
    Filename F:\Espacio de trabajo\Torrent\EAC Rips\W.A. Mozart - Exultate jubilate - Raymond Leppard - CD 1989 (FLAC)\09 KV374- A questo seno deh vieni....wav
    Pre-gap length 0:00:06.00
    Peak level 97.7 %
    Extraction speed 2.1 X
    Track quality 100.0 %
    Test CRC 7E766B37
    Copy CRC 7E766B37
    Accurately ripped (confidence 3) [014B781D] (AR v2)
    Copy OK
    All tracks accurately ripped
    No errors occurred
    End of status report
    ==== Log checksum E7F08199F3545CC84E2EA2D9F70D95C36C52F06F04835E00EBCBE05F3B435F50 ====

    auCDtect Task Manager log / Отчёт auCDtect Task Manager

    -----------------------
    DON'T MODIFY THIS FILE
    -----------------------
    PERFORMER: auCDtect Task Manager, ver. 1.5.1RC3 build 1.5.1.4
    Copyright (c) 2008-2010 y-soft. All rights reserved
    ANALYZER: auCDtect: CD records authenticity detector, version 0.8.2
    Copyright (c) 2004 Oleg Berngardt. All rights reserved.
    Copyright (c) 2004 Alexander Djourik. All rights reserved.
    FILE: 06 - Vesperae de Dominica, KV 321 - ''Laudate dominum''.flac
    Size: 23281923 Hash: 5CD85A66E3AC5F8F00B1A7FD87A3D880 Accuracy: -m0
    Conclusion: CDDA 100%
    Signature: 758B96292022001708EE42DB4FDCD4EFF3A939DB
    FILE: 05 - Litaniae de venerabili altaris sacramento, KV 243 - ''Dulcissimus convivium''.flac
    Size: 23761571 Hash: 78018D45387101D1EE092804BF8B191D Accuracy: -m0
    Conclusion: CDDA 100%
    Signature: 1A84C100DCE5C36EEADCDA7E0549746B90CB1767
    FILE: 04 - ''Exsultate, jubilate'', KV 165 - ''Alleluja''.flac
    Size: 13485734 Hash: 03CADFDE148C6956775E0C36BBF2F3A6 Accuracy: -m0
    Conclusion: CDDA 100%
    Signature: 40B04A7413DC38D51C800E2256C49720105A8458
    FILE: 03 - ''Exsultate, jubilate'', KV 165 - ''Tu virginum corona''.flac
    Size: 39499592 Hash: 73A55AE0C2E5EB84EB39C7734364AF9F Accuracy: -m0
    Conclusion: CDDA 100%
    Signature: 8D1CEC6AD299A407972C6B0D568140A11928614F
    FILE: 02 - ''Exsultate, jubilate'', KV 165 - ''Fulget amica dies''.flac
    Size: 4083569 Hash: 0E7A6BC9F0061C2BA7683F15915D50C4 Accuracy: -m0
    Conclusion: CDDA 100%
    Signature: 624C99552E5E95B8D2D4DDB7407F3ED75B14439B
    FILE: 01 - ''Exsultate, jubilate'', KV 165 - ''Exsultate, jubilate''.flac
    Size: 24294152 Hash: 67C31B6D0785BF6E4D4B0D9E404B7516 Accuracy: -m0
    Conclusion: CDDA 100%
    Signature: 27AF196E06A923E11F50332A3BD835C21DDBF078
    FILE: 09 - Recitativo e Rondo ''A questo seno deh vieni''. - ''Or che il cielo a me ti rende'', KV 374.flac
    Size: 43351223 Hash: AFC70ACED5AC4D9B196627FF8222C235 Accuracy: -m0
    Conclusion: CDDA 100%
    Signature: 511E2C1A5BA8A4393663B92FAC416883297E9389
    FILE: 08 - Recitativo ed Aria ''Basta, vincesti''. - ''Ah non lasciarmi, no, bell'idol mio'', KV 486a.flac
    Size: 36293648 Hash: D87F3BF41D205BDDE5615CD3BA9142F8 Accuracy: -m0
    Conclusion: CDDA 100%
    Signature: DA6DCB3E582F27548C40DB63C9EBCE54A2F5A5F5
    FILE: 07 - Aria ''Voi avete un cor fedele'', KV 217.flac
    Size: 38454569 Hash: 9F161578B19F292FB78DCAEEDAD8B017 Accuracy: -m0
    Conclusion: CDDA 100%
    Signature: 9F2260E30F9782793F43A63032E660CA826C215A

    CUETools log / Отчёт CUETools

    [CUETools log; Date: 30.05.2015 17:44:02; Version: 2.1.4]
    Pregap length 00:00:33.
    [AccurateRip ID: 000f0fbb-00721378-630c0409] found.
    Track [ CRC | V2 ] Status
    01 [2441b8c9|441c1077] (0+3/3) Accurately ripped
    02 [9d420abd|d805bda2] (0+3/3) Accurately ripped
    03 [4845d66e|a97c09d0] (0+3/3) Accurately ripped
    04 [593c73d1|83c68fb2] (0+3/3) Accurately ripped
    05 [809e8d8c|7d2c2914] (0+3/3) Accurately ripped
    06 [43c6fff6|4ed093fb] (0+3/3) Accurately ripped
    07 [c00c5624|eb5b4a67] (0+3/3) Accurately ripped
    08 [00b5705c|54b01151] (0+3/3) Accurately ripped
    09 [cd7619a1|014b781d] (0+3/3) Accurately ripped
    Track Peak [ CRC32 ] [W/O NULL] [ LOG ]
    -- 99,0 [200873BD] [7F21817F]
    01 97,4 [C4864CB9] [07C4C5D5] CRC32
    02 61,7 [5D4BFE1C] [817C84FE] CRC32
    03 73,0 [25E08D5B] [255B2028] CRC32
    04 90,9 [4D886394] [06343E84] CRC32
    05 75,5 [01F33B3E] [77209199] CRC32
    06 82,0 [CDAC6488] [60C05250] CRC32
    07 99,0 [0732CF94] [66FF647B] CRC32
    08 98,1 [4D89559D] [39690BA4] CRC32
    09 97,7 [7E766B37] [B2AF745D] CRC32

    CUE sheet

    TITLE "Wolfgang Amadeus Mozart: Exsultate, jubilate"
    PERFORMER "Elly Ameling"
    REM GENRE Classical
    REM DISCID 630C0409
    REM COMMENT "ExactAudioCopy v1.0b3"
    CATALOG 0028942607224
    FILE "01 - ''Exsultate, jubilate'', KV 165 - ''Exsultate, jubilate''.flac" WAVE
    TRACK 01 AUDIO
    TITLE "«Exsultate, jubilate», KV 165: «Exsultate, jubilate»"
    PERFORMER "Elly Ameling (soprano), English Chamber Orchestra. Raymond Leppard, conductor"
    REM DATE 1969
    PREGAP 00:00:33
    INDEX 01 00:00:00
    TRACK 02 AUDIO
    TITLE "«Exsultate, jubilate», KV 165: «Fulget amica dies»"
    PERFORMER "Elly Ameling (soprano), English Chamber Orchestra. Raymond Leppard, conductor"
    REM DATE 1969
    INDEX 00 04:56:00
    FILE "02 - ''Exsultate, jubilate'', KV 165 - ''Fulget amica dies''.flac" WAVE
    INDEX 01 00:00:00
    FILE "03 - ''Exsultate, jubilate'', KV 165 - ''Tu virginum corona''.flac" WAVE
    TRACK 03 AUDIO
    TITLE "«Exsultate, jubilate», KV 165: «Tu virginum corona»"
    PERFORMER "Elly Ameling (soprano), English Chamber Orchestra. Raymond Leppard, conductor"
    REM DATE 1969
    INDEX 01 00:00:00
    FILE "04 - ''Exsultate, jubilate'', KV 165 - ''Alleluja''.flac" WAVE
    TRACK 04 AUDIO
    TITLE "«Exsultate, jubilate», KV 165: «Alleluja»"
    PERFORMER "Elly Ameling (soprano), English Chamber Orchestra. Raymond Leppard, conductor"
    REM DATE 1969
    INDEX 01 00:00:00
    TRACK 05 AUDIO
    TITLE "Litaniae de venerabili altaris sacramento, KV 243: «Dulcissimus convivium»"
    PERFORMER "Elly Ameling (soprano), English Chamber Orchestra. Raymond Leppard, conductor"
    REM DATE 1969
    INDEX 00 02:39:38
    FILE "05 - Litaniae de venerabili altaris sacramento, KV 243 - ''Dulcissimus convivium''.flac" WAVE
    INDEX 01 00:00:00
    TRACK 06 AUDIO
    TITLE "Vesperae de Dominica, KV 321: «Laudate dominum»"
    PERFORMER "Elly Ameling (soprano), English Chamber Orchestra. Raymond Leppard, conductor"
    REM DATE 1969
    INDEX 00 04:50:00
    FILE "06 - Vesperae de Dominica, KV 321 - ''Laudate dominum''.flac" WAVE
    INDEX 01 00:00:00
    TRACK 07 AUDIO
    TITLE "Aria «Voi avete un cor fedele», KV 217"
    PERFORMER "Elly Ameling (soprano), English Chamber Orchestra. Raymond Leppard, conductor"
    REM DATE 1969
    INDEX 00 04:44:00
    FILE "07 - Aria ''Voi avete un cor fedele'', KV 217.flac" WAVE
    INDEX 01 00:00:00
    TRACK 08 AUDIO
    TITLE "Recitativo ed Aria «Basta, vincesti». — «Ah non lasciarmi, nò, bell'idol mio», KV 486a"
    PERFORMER "Elly Ameling (soprano), English Chamber Orchestra. Raymond Leppard, conductor"
    REM DATE 1969
    INDEX 00 07:41:00
    FILE "08 - Recitativo ed Aria ''Basta, vincesti''. - ''Ah non lasciarmi, no, bell'idol mio'', KV 486a.flac" WAVE
    INDEX 01 00:00:00
    TRACK 09 AUDIO
    TITLE "Recitativo e Rondo «A questo seno deh vieni». — «Or che il cielo a me ti rende», KV 374"
    PERFORMER "Elly Ameling (soprano), English Chamber Orchestra. Raymond Leppard, conductor"
    REM DATE 1969
    INDEX 00 07:44:00
    FILE "09 - Recitativo e Rondo ''A questo seno deh vieni''. - ''Or che il cielo a me ti rende'', KV 374.flac" WAVE
    INDEX 01 00:00:00
    -
    Wolfgang Amadeus Mozart — каталог раздач на rutracker.orgВсе мои раздачи / All my releases



  • Показать сообщения:    

    Текущее время: 03-Дек 14:39

    Часовой пояс: UTC + 3


    Вы не можете начинать темы
    Вы не можете отвечать на сообщения
    Вы не можете редактировать свои сообщения
    Вы не можете удалять свои сообщения
    Вы не можете голосовать в опросах
    Вы не можете прикреплять файлы к сообщениям
    Вы не можете скачивать файлы