[TR24][OF] Johannes Brahms: Violin Concerto In D, Op.77; Clara Schumann: Three Romances for Violin and Piano, Op.22 (Lisa Batiashvili, Alice Sara Ott, Staatskapelle Dresden, Christian Thielemann) - 2013 (Classical)

DL-List and Torrent activity [Update пиров]
Size:  817 MB   |    Registered:  7 months 4 days   |    Completed:  0 times

Seeder not seen: Never



Johannes Brahms · Clara Schumann
Lisa Batiashvili
Alice Sara Ott · Staatskapelle Dresden · Christian Thielemann
- Год издания: 2013 | Жанр: Classical
Издатель: Deutsche Grammophon | Продолжительность: 00:47:26
Наличие сканов: Sleeve, Digital Booklet- -Johannes Brahms (1833-1897)
Violin Concerto in D, Op.77
01.1. Allegro non troppo (21:09)
02. 2. Adagio (8:49)
03. 3. Allegro giocoso, ma non troppo vivace - Poco più presto (8:04)
Clara Schumann (1819-1896)
Three Romances for Violin and Piano, Op.22
04. 1. Andante molto (2:46)
05. 2. Allegretto (2:45)
06. 3. Leidenschaftlich schnell (3:53)-Контейнер: FLAC (*.flac) | Тип рипа: tracks
Разрядность: 24bit / 96kHz | Количество каналов: 2.0
-О релизе
Warmth, tenderness, love
Following her critically hailed Deutsche Grammophon debut, Echoes of Time – and growing acclaim for her concert appearances – violin virtuosa Lisa Batiashvili meets every challenge of Brahms’s monumental Violin Concerto.
With maestro Christian Thielemann and the instrumentalists of the Staatskapelle Dresden, for whom German Romanticism is the birthright, Lisa Batiashvili’s elegant, eloquent artistry finds ideal partners. Meeting Thielemann exceeded all her expectations: “. . .his conducting was wild and fiery. At the same time I always had the feeling that I was being supported by the orchestra and that I had time to react.”
Rounding out the programme are Clara Schumann chamber pieces that Batiashvili plays together with young pianist Alice Sara Ott. For the first time in their careers they teamed up to play the three romances.
'...this performance is lively and warm, partly thanks to Batiashvili [the concerto's electrifying soloist on this album], who sets the dominant tone in her darkly sensuous opening line... throughout Batiashvili remains herself: less showy than some but deeply responsive to the music's inner workings and its colours. The range of hues summoned within her long phrasings is wondrously wide, each one delicately applied. The slow movement, the concerto's singing heart, is tender without being sentimental. And Batiashvili and Thielemann jointly triumph in the first movement's chief necessity -- keeping the scale epic and muscular while maintaining an intimate focus. Here is the sort of thoughtful reading that makes you fall in love with the concerto all over again...[in Clara Schumann's fetching violin and piano 'Romances'] Batiashvili is brightly partnered by Alice Sara Ott. (Geoff Brown, The Times)
'... impeccable technique and sense of timing... in the opening tutti the orchestra sits well in the hall, with a natural sense of perspective... a beautifully played oboe solo [in the second movement]... [her quieter playing] allows her seamless legato and tonal sophistication to shine. It's a welcome surprise to hear the Busoni cadenza in the first movement... [C. Schumann' Romances are] satisfying...' (Martin Cotton, BBC Music Magazine)
Lisa Batiashvili, voilin
Alice Sara Ott, piano
Staatskapelle Dresden
Christian Thielemann, conductor
Executive Producer: Angelika Meissner
Producers: Sid McLauchlan (Brahms, Schumann), Arend Prohmann (Brahms)
Recording Engineer (Tonmeister): Peter Hecker
Assistant Engineers: Tilo Feinermann, Teresa Kunz (Brahms); Clemens Deller (Brahms & Schumann)
Project Coordinator: Veronika Weiher
Mixed and mastered at WHITELAKE STUDIOS BERLIN

ОтчётыДинамический диапазон

foobar2000 1.2.2 / Dynamic Range Meter 1.1.1
log date: 2015-05-29 19:49:51
Analyzed: Lisa Batiashvili, Alice Sara Ott / Johannes Brahms / Clara Schumann (1-3)
Lisa Batiashvili, Staatskapelle Dresden, Christian Thielemann / Johannes Brahms / Clara Schumann (4-6)
DR Peak RMS Duration Track
DR13 -7.28 dB -25.47 dB 2:46 ?-3 Romances For Violin And Piano, Op.22 - 1. Andante molto
DR14 -5.10 dB -26.66 dB 2:45 ?-3 Romances For Violin And Piano, Op.22 - 2. Allegretto
DR12 -5.43 dB -23.24 dB 3:53 ?-3 Romances For Violin And Piano, Op.22 - 3. Leidenschaftlich schnell
DR16 -0.20 dB -22.19 dB 21:09 ?-Violin Concerto in D, Op.77 - 1. Allegro non troppo
DR16 -3.84 dB -27.64 dB 8:49 ?-Violin Concerto in D, Op.77 - 2. Adagio
DR14 -0.10 dB -19.33 dB 8:04 ?-Violin Concerto in D, Op.77 - 3. Allegro giocoso, ma non troppo vivace - Poco più presto
Number of tracks: 6
Official DR value: DR14
Samplerate: 96000 Hz
Channels: 2
Bits per sample: 24
Bitrate: 2519 kbps
Codec: FLAC

Скриншот спектра частот

Доп. информация

При скачивании, если необходимо, переименуйте папку, в которой будет находиться альбомБольшая просьба к скачавшим поддерживать раздачу! Помогайте другим, ведь вам тоже может понадобиться помощь!Не забываем говорить "Спасибо"!Комментарии приветствуются!
Torrent: Registered [ 2016-03-20 00:47 ] · 53250B75CD0EBA790F680E00310AA967650556B2

Download .torrent


17 KB

Status: checked
Completed: 0 times
Size: 817 MB

Quick Reply


Heads necessary to send messages to enable JavaScript
Display posts:    

Current time is: 24-Oct 23:07

All times are UTC + 3

You can post new topics in this forum
You can reply to topics in this forum
You cannot edit your posts in this forum
You cannot delete your posts in this forum
You cannot vote in polls in this forum
You cannot attach files in this forum
You can download files in this forum