(Classical) Thomanerchor Leipzig, Dresdner Kreuzchor (Peter Schreier) - Wunderbare Weihnacht' (Bach, Handel, Schutz, Buxtehude, Gruber, Eccard, Praetorius, Bodenschatz, Brachel, Hasse, Bohm, Vetter...)- 2000, (3CD) FLAC (tracks+.cue) lossless


Статистика раздачи [Обновить пиров]
Размер:  955 MB   |    Зарегистрирован:  8 месяцев 18 дней   |    Скачан:  0 раз

Полного источника не было: Никогда

 
   
 
 
 

[Цитировать]

Peter Schreier - Thomanerchor Leipzig - Dresdner Kreuzchor u.a.- Wunderbare Weihnacht'
Жанр: Classical
Страна-производитель диска: Germany
Год издания диска: 2000
Издатель (лейбл): Edel Classics GmbH
Номер по каталогу: 01828562ART
Дата записи: 1963-1993
Аудиокодек: FLAC
Тип рипа: tracks+.cue
Битрейт аудио: lossless
Продолжительность: 1:04:30. + 1:06:31. + 1:04:47.
Источник: собственный рип
Наличие сканов в содержимом раздачи: да

CD1

01. Süßer die Glocken nie klingen [0:02:08.10]
02. Macht hoch die Tür [0:05:17.65]
03. Vom Himmel hoch, o Englein kommt [0:02:46.50]
04. Vom Himmel hoch, da komm ich her [0:02:28.40]
05. O Freude über Freud [0:03:01.52]
06. Oh du fröhliche [0:02:37.20]
07. In dulci jubilo [0:02:52.43]
08. Es ist erschienen die heilsame Gnade Gottes SWV 371 [0:03:59.00]
09. Es ist ein Ros entsprungen [0:03:13.55]
10. Maria durch ein Dornwald ging [0:02:09.67]
11. Stille Nacht, heilige Nacht [0:02:56.48]
12. Gelobet seiest du, Jesus Christ [0:03:42.57]
13. Herbei, o ihr Gläubigen (Adeste Fideles) [0:02:21.13]
14. O Tannenbaum, du trägst ein' grünen Zweig [0:01:19.65]
15. Joseph, lieber Joseph mein [0:02:13.55]
16. Hodie Christus natus est [0:04:24.32]
17. Die Himmel erzählen die Ehre Gottes SWV 286 [0:04:56.15]
18. Wie schön singt uns der Engel Schar [0:02:32.43]
19. Übers Gebirg Maria geht [0:03:27.17]
20. Hosianna dem Sohne Davids [0:01:03.00]
21. Der Morgenstern ist aufgedrungen [0:01:50.55]
22. Stille Nacht [0:03:06.43]
Исполнители:
Peter Schreier - Thomanerchor Leipzig - Dresdner Kreuzchor u.a.

Лог создания рипа

Exact Audio Copy V1.0 beta 3 from 29. August 2011
Отчёт EAC об извлечении, выполненном 25. апреля 2015, 14:49
Thomanerchor Leipzig / Wunderbare Weihnacht'
Дисковод: ASUS DRW-1814BLT Adapter: 4 ID: 0
Режим чтения : Достоверность
Использование точного потока : Да
Отключение кэша аудио : Да
Использование указателей C2 : Нет
Коррекция смещения при чтении : 6
Способность читать области Lead-in и Lead-out : Нет
Заполнение пропущенных сэмплов тишиной : Да
Удаление блоков с тишиной в начале и конце : Нет
При вычислениях CRC использовались нулевые сэмплы : Да
Интерфейс : Встроенный Win32-интерфейс для Win NT/2000
Обработка зазоров : Добавлено к предыдущему треку
Выходной формат : Пользовательский кодировщик
Выбранный битрейт : 128 kBit/s
Качество : Высокий
Добавление ID3-тега : Нет
Утилита сжатия : C:\Program Files\Exact Audio Copy\Flac\flac.exe
Дополнительные параметры : -V -8 -T "Genre=%genre%" -T "Artist=%artist%" -T "Title=%title%" -T "Album=%albumtitle%" -T "Date=%year%" -T "Tracknumber=%tracknr%" -T "Comment=EAC1.0b2 FLAC -8" %source%
TOC извлечённого CD
Трек | Старт | Длительность | Начальный сектор | Конечный сектор
---------------------------------------------------------------------
1 | 0:00.00 | 2:08.10 | 0 | 9609
2 | 2:08.10 | 5:17.65 | 9610 | 33449
3 | 7:26.00 | 2:46.50 | 33450 | 45949
4 | 10:12.50 | 2:28.40 | 45950 | 57089
5 | 12:41.15 | 3:01.52 | 57090 | 70716
6 | 15:42.67 | 2:37.20 | 70717 | 82511
7 | 18:20.12 | 2:52.43 | 82512 | 95454
8 | 21:12.55 | 3:59.00 | 95455 | 113379
9 | 25:11.55 | 3:13.55 | 113380 | 127909
10 | 28:25.35 | 2:09.67 | 127910 | 137651
11 | 30:35.27 | 2:56.48 | 137652 | 150899
12 | 33:32.00 | 3:42.57 | 150900 | 167606
13 | 37:14.57 | 2:21.13 | 167607 | 178194
14 | 39:35.70 | 1:19.65 | 178195 | 184184
15 | 40:55.60 | 2:13.55 | 184185 | 194214
16 | 43:09.40 | 4:24.32 | 194215 | 214046
17 | 47:33.72 | 4:56.15 | 214047 | 236261
18 | 52:30.12 | 2:32.43 | 236262 | 247704
19 | 55:02.55 | 3:27.17 | 247705 | 263246
20 | 58:29.72 | 1:03.00 | 263247 | 267971
21 | 59:32.72 | 1:50.55 | 267972 | 276276
22 | 61:23.52 | 3:06.43 | 276277 | 290269
Трек 1
Имя файла R:\Раздача 44\Wunder Weihnacht - Die Schonsten Lieder, Choir-und Orgelwerke zum fest - 2000 (3CD)\CD1\01 Süßer die Glocken nie klingen.wav
Длина предзазора 0:00:02.00
Пиковый уровень 58.9 %
Скорость извлечения 3.0 X
Качество трека 99.9 %
CRC теста B1A84FFB
CRC копии B1A84FFB
Точность не определена (достоверность 2) [89C4E259], AccurateRip вернул [8C058285] (AR v2)
Копирование... OK
Трек 2
Имя файла R:\Раздача 44\Wunder Weihnacht - Die Schonsten Lieder, Choir-und Orgelwerke zum fest - 2000 (3CD)\CD1\02 Macht hoch die Tür.wav
Пиковый уровень 97.4 %
Скорость извлечения 5.6 X
Качество трека 100.0 %
CRC теста A117256C
CRC копии A117256C
Точность не определена (достоверность 2) [F03CD114], AccurateRip вернул [C78466E3] (AR v2)
Копирование... OK
Трек 3
Имя файла R:\Раздача 44\Wunder Weihnacht - Die Schonsten Lieder, Choir-und Orgelwerke zum fest - 2000 (3CD)\CD1\03 Vom Himmel hoch, o Englein kommt.wav
Длина предзазора 0:00:02.23
Пиковый уровень 85.3 %
Скорость извлечения 3.9 X
Качество трека 99.9 %
CRC теста ABE3BE1A
CRC копии ABE3BE1A
Точность не определена (достоверность 2) [60590DB6], AccurateRip вернул [4DAD402F] (AR v2)
Копирование... OK
Трек 4
Имя файла R:\Раздача 44\Wunder Weihnacht - Die Schonsten Lieder, Choir-und Orgelwerke zum fest - 2000 (3CD)\CD1\04 Vom Himmel hoch, da komm ich her.wav
Длина предзазора 0:00:02.40
Пиковый уровень 93.3 %
Скорость извлечения 5.6 X
Качество трека 100.0 %
CRC теста 87ACA5C6
CRC копии 87ACA5C6
Точность не определена (достоверность 2) [A363C169], AccurateRip вернул [C38980A8] (AR v2)
Копирование... OK
Трек 5
Имя файла R:\Раздача 44\Wunder Weihnacht - Die Schonsten Lieder, Choir-und Orgelwerke zum fest - 2000 (3CD)\CD1\05 O Freude über Freud.wav
Пиковый уровень 98.7 %
Скорость извлечения 6.1 X
Качество трека 100.0 %
CRC теста 71935A98
CRC копии 71935A98
Точность не определена (достоверность 2) [2E8AAC32], AccurateRip вернул [34360DAF] (AR v2)
Копирование... OK
Трек 6
Имя файла R:\Раздача 44\Wunder Weihnacht - Die Schonsten Lieder, Choir-und Orgelwerke zum fest - 2000 (3CD)\CD1\06 Oh du fröhliche.wav
Длина предзазора 0:00:01.35
Пиковый уровень 78.8 %
Скорость извлечения 6.3 X
Качество трека 100.0 %
CRC теста 90CD0D2E
CRC копии 90CD0D2E
Точность не определена (достоверность 2) [6025A7F6], AccurateRip вернул [0C2FED7F] (AR v2)
Копирование... OK
Трек 7
Имя файла R:\Раздача 44\Wunder Weihnacht - Die Schonsten Lieder, Choir-und Orgelwerke zum fest - 2000 (3CD)\CD1\07 In dulci jubilo.wav
Длина предзазора 0:00:02.27
Пиковый уровень 97.7 %
Скорость извлечения 6.6 X
Качество трека 100.0 %
CRC теста 9FCA4AC0
CRC копии 9FCA4AC0
Точность не определена (достоверность 2) [68147AE3], AccurateRip вернул [8205499B] (AR v2)
Копирование... OK
Трек 8
Имя файла R:\Раздача 44\Wunder Weihnacht - Die Schonsten Lieder, Choir-und Orgelwerke zum fest - 2000 (3CD)\CD1\08 Es ist erschienen die heilsame Gnade Gottes SWV 371.wav
Длина предзазора 0:00:01.68
Пиковый уровень 87.6 %
Скорость извлечения 7.3 X
Качество трека 100.0 %
CRC теста 6E3311E2
CRC копии 6E3311E2
Точность не определена (достоверность 2) [AA9211EC], AccurateRip вернул [497E612F] (AR v2)
Копирование... OK
Трек 9
Имя файла R:\Раздача 44\Wunder Weihnacht - Die Schonsten Lieder, Choir-und Orgelwerke zum fest - 2000 (3CD)\CD1\09 Es ist ein Ros entsprungen.wav
Длина предзазора 0:00:02.08
Пиковый уровень 95.5 %
Скорость извлечения 7.3 X
Качество трека 100.0 %
CRC теста 625F899E
CRC копии 625F899E
Точность не определена (достоверность 2) [8D65A7F8], AccurateRip вернул [CAD9BD79] (AR v2)
Копирование... OK
Трек 10
Имя файла R:\Раздача 44\Wunder Weihnacht - Die Schonsten Lieder, Choir-und Orgelwerke zum fest - 2000 (3CD)\CD1\10 Maria durch ein Dornwald ging.wav
Длина предзазора 0:00:02.70
Пиковый уровень 99.5 %
Скорость извлечения 7.0 X
Качество трека 100.0 %
CRC теста AA291E11
CRC копии AA291E11
Точность не определена (достоверность 2) [2D819669], AccurateRip вернул [9232FFD2] (AR v2)
Копирование... OK
Трек 11
Имя файла R:\Раздача 44\Wunder Weihnacht - Die Schonsten Lieder, Choir-und Orgelwerke zum fest - 2000 (3CD)\CD1\11 Stille Nacht, heilige Nacht.wav
Длина предзазора 0:00:01.32
Пиковый уровень 98.8 %
Скорость извлечения 5.6 X
Качество трека 99.9 %
CRC теста 213D5C2B
CRC копии 213D5C2B
Точность не определена (достоверность 2) [0DF91A9F], AccurateRip вернул [565C8CB0] (AR v2)
Копирование... OK
Трек 12
Имя файла R:\Раздача 44\Wunder Weihnacht - Die Schonsten Lieder, Choir-und Orgelwerke zum fest - 2000 (3CD)\CD1\12 Gelobet seiest du, Jesus Christ.wav
Длина предзазора 0:00:01.33
Пиковый уровень 97.7 %
Скорость извлечения 6.1 X
Качество трека 99.9 %
CRC теста 4E73C039
CRC копии 4E73C039
Точность не определена (достоверность 2) [B120A110], AccurateRip вернул [2D9A47DE] (AR v2)
Копирование... OK
Трек 13
Имя файла R:\Раздача 44\Wunder Weihnacht - Die Schonsten Lieder, Choir-und Orgelwerke zum fest - 2000 (3CD)\CD1\13 Herbei, o ihr Gläubigen (Adeste Fideles).wav
Длина предзазора 0:00:02.20
Пиковый уровень 94.7 %
Скорость извлечения 6.6 X
Качество трека 100.0 %
CRC теста 8413AA06
CRC копии 8413AA06
Точность не определена (достоверность 2) [56B7F519], AccurateRip вернул [ED0A79C6] (AR v2)
Копирование... OK
Трек 14
Имя файла R:\Раздача 44\Wunder Weihnacht - Die Schonsten Lieder, Choir-und Orgelwerke zum fest - 2000 (3CD)\CD1\14 O Tannenbaum, du trägst ein' grünen Zweig.wav
Длина предзазора 0:00:02.65
Пиковый уровень 58.8 %
Скорость извлечения 6.8 X
Качество трека 100.0 %
CRC теста C6C9176E
CRC копии C6C9176E
Точность не определена (достоверность 2) [F36B07D7], AccurateRip вернул [533CF03B] (AR v2)
Копирование... OK
Трек 15
Имя файла R:\Раздача 44\Wunder Weihnacht - Die Schonsten Lieder, Choir-und Orgelwerke zum fest - 2000 (3CD)\CD1\15 Joseph, lieber Joseph mein.wav
Длина предзазора 0:00:02.50
Пиковый уровень 79.3 %
Скорость извлечения 7.7 X
Качество трека 100.0 %
CRC теста A671B0E6
CRC копии A671B0E6
Точность не определена (достоверность 2) [BB4594EB], AccurateRip вернул [5321E2F5] (AR v2)
Копирование... OK
Трек 16
Имя файла R:\Раздача 44\Wunder Weihnacht - Die Schonsten Lieder, Choir-und Orgelwerke zum fest - 2000 (3CD)\CD1\16 Hodie Christus natus est.wav
Длина предзазора 0:00:02.23
Пиковый уровень 92.4 %
Скорость извлечения 9.0 X
Качество трека 100.0 %
CRC теста 60F007DD
CRC копии 60F007DD
Точность не определена (достоверность 2) [699726C5], AccurateRip вернул [ADBE426A] (AR v2)
Копирование... OK
Трек 17
Имя файла R:\Раздача 44\Wunder Weihnacht - Die Schonsten Lieder, Choir-und Orgelwerke zum fest - 2000 (3CD)\CD1\17 Die Himmel erzählen die Ehre Gottes SWV 286.wav
Длина предзазора 0:00:03.17
Пиковый уровень 95.5 %
Скорость извлечения 9.4 X
Качество трека 100.0 %
CRC теста D8A0B2C9
CRC копии D8A0B2C9
Точность не определена (достоверность 2) [020FC389], AccurateRip вернул [08900F10] (AR v2)
Копирование... OK
Трек 18
Имя файла R:\Раздача 44\Wunder Weihnacht - Die Schonsten Lieder, Choir-und Orgelwerke zum fest - 2000 (3CD)\CD1\18 Wie schön singt uns der Engel Schar.wav
Длина предзазора 0:00:03.42
Пиковый уровень 92.2 %
Скорость извлечения 8.7 X
Качество трека 100.0 %
CRC теста 309F09E7
CRC копии 309F09E7
Точность не определена (достоверность 2) [35A585B3], AccurateRip вернул [2E0B9428] (AR v2)
Копирование... OK
Трек 19
Имя файла R:\Раздача 44\Wunder Weihnacht - Die Schonsten Lieder, Choir-und Orgelwerke zum fest - 2000 (3CD)\CD1\19 Übers Gebirg Maria geht.wav
Длина предзазора 0:00:02.70
Пиковый уровень 98.8 %
Скорость извлечения 9.3 X
Качество трека 100.0 %
CRC теста 136C849A
CRC копии 136C849A
Точность не определена (достоверность 2) [97DAF865], AccurateRip вернул [FFFF4C3F] (AR v2)
Копирование... OK
Трек 20
Имя файла R:\Раздача 44\Wunder Weihnacht - Die Schonsten Lieder, Choir-und Orgelwerke zum fest - 2000 (3CD)\CD1\20 Hosianna dem Sohne Davids.wav
Длина предзазора 0:00:03.42
Пиковый уровень 96.5 %
Скорость извлечения 6.8 X
Качество трека 100.0 %
CRC теста 877C3F7C
CRC копии 877C3F7C
Точность не определена (достоверность 2) [7BE93D06], AccurateRip вернул [BA3130F1] (AR v2)
Копирование... OK
Трек 21
Имя файла R:\Раздача 44\Wunder Weihnacht - Die Schonsten Lieder, Choir-und Orgelwerke zum fest - 2000 (3CD)\CD1\21 Der Morgenstern ist aufgedrungen.wav
Длина предзазора 0:00:02.30
Пиковый уровень 79.8 %
Скорость извлечения 8.3 X
Качество трека 100.0 %
CRC теста 1E60E282
CRC копии 1E60E282
Точность не определена (достоверность 2) [735A0886], AccurateRip вернул [3790C36E] (AR v2)
Копирование... OK
Трек 22
Имя файла R:\Раздача 44\Wunder Weihnacht - Die Schonsten Lieder, Choir-und Orgelwerke zum fest - 2000 (3CD)\CD1\22 Stille Nacht.wav
Длина предзазора 0:00:03.15
Пиковый уровень 98.8 %
Скорость извлечения 7.0 X
Качество трека 99.9 %
CRC теста 057F1AE7
CRC копии 057F1AE7
Точность не определена (достоверность 2) [DEE197C5], AccurateRip вернул [EF445A8E] (AR v2)
Копирование... OK
Ни один трек не прошёл проверки на точность
В вашей базе может быть иной вариант штамповки диска
Ошибок не произошло
Конец отчёта
==== Контрольная сумма отчёта E1883676A91287F4616659E5A31FD3CB903BF172F7ABD043D2D3B36721358ADD ====

Содержание индексной карты (.CUE)

REM GENRE Classical
REM DATE 2000
REM DISCID 270F1E16
REM COMMENT "ExactAudioCopy v1.0b3"
CATALOG 0782124825621
PERFORMER "Thomanerchor Leipzig"
TITLE "Wunderbare Weihnacht'"
FILE "01 Su.er die Glocken nie klingen.wav" WAVE
TRACK 01 AUDIO
TITLE "Su.er die Glocken nie klingen"
PERFORMER "Thomanerchor Leipzig"
INDEX 01 00:00:00
FILE "02 Macht hoch die Tur.wav" WAVE
TRACK 02 AUDIO
TITLE "Macht hoch die Tur"
PERFORMER "Thomanerchor Leipzig"
INDEX 01 00:00:00
TRACK 03 AUDIO
TITLE "Vom Himmel hoch, o Englein kommt"
PERFORMER "Thomanerchor Leipzig"
INDEX 00 05:15:42
FILE "03 Vom Himmel hoch, o Englein kommt.wav" WAVE
INDEX 01 00:00:00
TRACK 04 AUDIO
TITLE "Vom Himmel hoch, da komm ich her"
PERFORMER "Thomanerchor Leipzig"
INDEX 00 02:44:10
FILE "04 Vom Himmel hoch, da komm ich her.wav" WAVE
INDEX 01 00:00:00
FILE "05 O Freude uber Freud.wav" WAVE
TRACK 05 AUDIO
TITLE "O Freude uber Freud"
PERFORMER "Thomanerchor Leipzig"
INDEX 01 00:00:00
TRACK 06 AUDIO
TITLE "Oh du frohliche"
PERFORMER "Thomanerchor Leipzig"
INDEX 00 03:00:17
FILE "06 Oh du frohliche.wav" WAVE
INDEX 01 00:00:00
TRACK 07 AUDIO
TITLE "In dulci jubilo"
PERFORMER "Thomanerchor Leipzig"
INDEX 00 02:34:68
FILE "07 In dulci jubilo.wav" WAVE
INDEX 01 00:00:00
TRACK 08 AUDIO
TITLE "Es ist erschienen die heilsame Gnade Gottes SWV 371"
PERFORMER "Thomanerchor Leipzig"
INDEX 00 02:50:50
FILE "08 Es ist erschienen die heilsame Gnade Gottes SWV 371.wav" WAVE
INDEX 01 00:00:00
TRACK 09 AUDIO
TITLE "Es ist ein Ros entsprungen"
PERFORMER "Thomanerchor Leipzig"
INDEX 00 03:56:67
FILE "09 Es ist ein Ros entsprungen.wav" WAVE
INDEX 01 00:00:00
TRACK 10 AUDIO
TITLE "Maria durch ein Dornwald ging"
PERFORMER "Thomanerchor Leipzig"
INDEX 00 03:10:60
FILE "10 Maria durch ein Dornwald ging.wav" WAVE
INDEX 01 00:00:00
TRACK 11 AUDIO
TITLE "Stille Nacht, heilige Nacht"
PERFORMER "Thomanerchor Leipzig"
INDEX 00 02:08:35
FILE "11 Stille Nacht, heilige Nacht.wav" WAVE
INDEX 01 00:00:00
TRACK 12 AUDIO
TITLE "Gelobet seiest du, Jesus Christ"
PERFORMER "Thomanerchor Leipzig"
INDEX 00 02:55:15
FILE "12 Gelobet seiest du, Jesus Christ.wav" WAVE
INDEX 01 00:00:00
TRACK 13 AUDIO
TITLE "Herbei, o ihr Glaubigen (Adeste Fideles)"
PERFORMER "Thomanerchor Leipzig"
INDEX 00 03:40:37
FILE "13 Herbei, o ihr Glaubigen (Adeste Fideles).wav" WAVE
INDEX 01 00:00:00
TRACK 14 AUDIO
TITLE "O Tannenbaum, du tragst ein' grunen Zweig"
PERFORMER "Thomanerchor Leipzig"
INDEX 00 02:18:23
FILE "14 O Tannenbaum, du tragst ein' grunen Zweig.wav" WAVE
INDEX 01 00:00:00
TRACK 15 AUDIO
TITLE "Joseph, lieber Joseph mein"
PERFORMER "Thomanerchor Leipzig"
INDEX 00 01:17:15
FILE "15 Joseph, lieber Joseph mein.wav" WAVE
INDEX 01 00:00:00
TRACK 16 AUDIO
TITLE "Hodie Christus natus est"
PERFORMER "Thomanerchor Leipzig"
INDEX 00 02:11:32
FILE "16 Hodie Christus natus est.wav" WAVE
INDEX 01 00:00:00
TRACK 17 AUDIO
TITLE "Die Himmel erzahlen die Ehre Gottes SWV 286"
PERFORMER "Thomanerchor Leipzig"
INDEX 00 04:21:15
FILE "17 Die Himmel erzahlen die Ehre Gottes SWV 286.wav" WAVE
INDEX 01 00:00:00
TRACK 18 AUDIO
TITLE "Wie schon singt uns der Engel Schar"
PERFORMER "Thomanerchor Leipzig"
INDEX 00 04:52:48
FILE "18 Wie schon singt uns der Engel Schar.wav" WAVE
INDEX 01 00:00:00
TRACK 19 AUDIO
TITLE "Ubers Gebirg Maria geht"
PERFORMER "Thomanerchor Leipzig"
INDEX 00 02:29:48
FILE "19 Ubers Gebirg Maria geht.wav" WAVE
INDEX 01 00:00:00
TRACK 20 AUDIO
TITLE "Hosianna dem Sohne Davids"
PERFORMER "Thomanerchor Leipzig"
INDEX 00 03:23:50
FILE "20 Hosianna dem Sohne Davids.wav" WAVE
INDEX 01 00:00:00
TRACK 21 AUDIO
TITLE "Der Morgenstern ist aufgedrungen"
PERFORMER "Thomanerchor Leipzig"
INDEX 00 01:00:45
FILE "21 Der Morgenstern ist aufgedrungen.wav" WAVE
INDEX 01 00:00:00
TRACK 22 AUDIO
TITLE "Stille Nacht"
PERFORMER "Thomanerchor Leipzig"
INDEX 00 01:47:40
FILE "22 Stille Nacht.wav" WAVE
INDEX 01 00:00:00

CD2

01. Magnificat D-Dur BWV 243 : Magnificat [0:03:23.70]
02. Weichnachtsoratorium BWV 248 : Ach, mein herzliebes Jesulein [0:01:24.55]
03. Der Messias : Laßt alle Engel [0:01:29.60]
04. Utrechter Te Deum : Der hocherhabne Chor / Du bist der Herr [0:04:44.32]
05. Deutsches Magnificat SWV 494 : Meine Seele erhebt den Herrn [0:08:06.73]
06. Kantate "Erschallet, ihr Lieder" BWV 172 : Erschallet, ihr Lieder [0:04:22.52]
07. Der Messias : Frohlock und jauchze [0:04:27.70]
08. Weichnachtsoratorium BWV 248 : Nur ein Wink von seinen Händen [0:03:48.25]
09. Ein deutsches Magnificat : Meine Seel erhebt den Herrn : Sinfonia [0:01:00.08]
10. Ein deutsches Magnificat : Meine Seel erhebt den Herrn : Er gedenket der Bermherzigkeit [0:03:38.32]
11. Ein deutsches Magnificat : Meine Seel erhebt den Herrn : Wie er geredt hat unsern Vätern [0:00:59.60]
12. Kantate "Nun komm, der Heiden Heiland" BWV 61 : Komm, Jesu, komm zu deiner Kirche [0:04:14.55]
13. Der Messias : O du, die Wonne [0:04:26.13]
14. Der Messias : O du, die Wonne (2) [0:02:04.05]
15. Kantate "Dazu ist erschienen der Sohn Gottes" BWV 40 : Dazu ist erschienen der Sohn Gottes [0:04:17.07]
16. Concertus XII : Magnificat : Et exultavit [0:03:14.60]
17. Concertus XII : Magnificat : Sicut locutus est [0:04:02.08]
18. Messe in h-Moll BWV 232 : Osanna in excelsis [0:02:37.42]
19. Der Messias : Halleluja! [0:04:07.50]
Исполнители:
Peter Schreier - Thomanerchor Leipzig - Dresdner Kreuzchor u.a.

Лог создания рипа

Exact Audio Copy V1.0 beta 3 from 29. August 2011
Отчёт EAC об извлечении, выполненном 25. апреля 2015, 15:28
Peter Schreier - Thomaerchor - Dresdner Kreuzchor / Wunderbare Weihnacht'
Дисковод: ASUS DRW-1814BLT Adapter: 4 ID: 0
Режим чтения : Достоверность
Использование точного потока : Да
Отключение кэша аудио : Да
Использование указателей C2 : Нет
Коррекция смещения при чтении : 6
Способность читать области Lead-in и Lead-out : Нет
Заполнение пропущенных сэмплов тишиной : Да
Удаление блоков с тишиной в начале и конце : Нет
При вычислениях CRC использовались нулевые сэмплы : Да
Интерфейс : Встроенный Win32-интерфейс для Win NT/2000
Обработка зазоров : Добавлено к предыдущему треку
Выходной формат : Пользовательский кодировщик
Выбранный битрейт : 128 kBit/s
Качество : Высокий
Добавление ID3-тега : Нет
Утилита сжатия : C:\Program Files\Exact Audio Copy\Flac\flac.exe
Дополнительные параметры : -V -8 -T "Genre=%genre%" -T "Artist=%artist%" -T "Title=%title%" -T "Album=%albumtitle%" -T "Date=%year%" -T "Tracknumber=%tracknr%" -T "Comment=EAC1.0b2 FLAC -8" %source%
TOC извлечённого CD
Трек | Старт | Длительность | Начальный сектор | Конечный сектор
---------------------------------------------------------------------
1 | 0:00.00 | 3:23.70 | 0 | 15294
2 | 3:23.70 | 1:24.55 | 15295 | 21649
3 | 4:48.50 | 1:29.60 | 21650 | 28384
4 | 6:18.35 | 4:44.32 | 28385 | 49716
5 | 11:02.67 | 8:06.73 | 49717 | 86239
6 | 19:09.65 | 4:22.52 | 86240 | 105941
7 | 23:32.42 | 4:27.70 | 105942 | 126036
8 | 28:00.37 | 3:48.25 | 126037 | 143161
9 | 31:48.62 | 1:00.08 | 143162 | 147669
10 | 32:48.70 | 3:38.32 | 147670 | 164051
11 | 36:27.27 | 0:59.60 | 164052 | 168536
12 | 37:27.12 | 4:14.55 | 168537 | 187641
13 | 41:41.67 | 4:26.13 | 187642 | 207604
14 | 46:08.05 | 2:04.05 | 207605 | 216909
15 | 48:12.10 | 4:17.07 | 216910 | 236191
16 | 52:29.17 | 3:14.60 | 236192 | 250801
17 | 55:44.02 | 4:02.08 | 250802 | 268959
18 | 59:46.10 | 2:37.42 | 268960 | 280776
19 | 62:23.52 | 4:07.50 | 280777 | 299351
Трек 1
Имя файла R:\Раздача 44\Wunder Weihnacht - Die Schonsten Lieder, Choir-und Orgelwerke zum fest - 2000 (3CD)\CD2\01 Magnificat D-Dur BWV 243 - Magnificat.wav
Длина предзазора 0:00:02.00
Пиковый уровень 98.8 %
Скорость извлечения 4.9 X
Качество трека 100.0 %
CRC теста 78F55431
CRC копии 78F55431
Точное извлечение (достоверность 1) [C2D84C12] (AR v2)
Копирование... OK
Трек 2
Имя файла R:\Раздача 44\Wunder Weihnacht - Die Schonsten Lieder, Choir-und Orgelwerke zum fest - 2000 (3CD)\CD2\02 Weichnachtsoratorium BWV 248 - Ach, mein herzliebes Jesulein.wav
Длина предзазора 0:00:02.30
Пиковый уровень 88.8 %
Скорость извлечения 4.3 X
Качество трека 100.0 %
CRC теста B896CC7B
CRC копии B896CC7B
Точное извлечение (достоверность 1) [F3C41E17] (AR v2)
Копирование... OK
Трек 3
Имя файла R:\Раздача 44\Wunder Weihnacht - Die Schonsten Lieder, Choir-und Orgelwerke zum fest - 2000 (3CD)\CD2\03 Der Messias - Laßt alle Engel.wav
Длина предзазора 0:00:02.35
Пиковый уровень 92.3 %
Скорость извлечения 4.5 X
Качество трека 100.0 %
CRC теста DBE062E3
CRC копии DBE062E3
Точное извлечение (достоверность 1) [A73FB979] (AR v2)
Копирование... OK
Трек 4
Имя файла R:\Раздача 44\Wunder Weihnacht - Die Schonsten Lieder, Choir-und Orgelwerke zum fest - 2000 (3CD)\CD2\04 Utrechter Te Deum - Der hocherhabne Chor , Du bist der Herr.wav
Длина предзазора 0:00:02.18
Пиковый уровень 98.8 %
Скорость извлечения 6.1 X
Качество трека 100.0 %
CRC теста B271196B
CRC копии B271196B
Точное извлечение (достоверность 1) [B741613A] (AR v2)
Копирование... OK
Трек 5
Имя файла R:\Раздача 44\Wunder Weihnacht - Die Schonsten Lieder, Choir-und Orgelwerke zum fest - 2000 (3CD)\CD2\05 Deutsches Magnificat SWV 494 - Meine Seele erhebt den Herrn.wav
Длина предзазора 0:00:04.17
Пиковый уровень 82.9 %
Скорость извлечения 7.1 X
Качество трека 100.0 %
CRC теста A72AFAB6
CRC копии A72AFAB6
Точное извлечение (достоверность 1) [A433594B] (AR v2)
Копирование... OK
Трек 6
Имя файла R:\Раздача 44\Wunder Weihnacht - Die Schonsten Lieder, Choir-und Orgelwerke zum fest - 2000 (3CD)\CD2\06 Kantate ''Erschallet, ihr Lieder'' BWV 172 - Erschallet, ihr Lieder.wav
Длина предзазора 0:00:02.63
Пиковый уровень 98.9 %
Скорость извлечения 7.4 X
Качество трека 100.0 %
CRC теста E1A711DD
CRC копии E1A711DD
Точное извлечение (достоверность 1) [717E4F14] (AR v2)
Копирование... OK
Трек 7
Имя файла R:\Раздача 44\Wunder Weihnacht - Die Schonsten Lieder, Choir-und Orgelwerke zum fest - 2000 (3CD)\CD2\07 Der Messias - Frohlock und jauchze.wav
Длина предзазора 0:00:02.05
Пиковый уровень 91.2 %
Скорость извлечения 5.8 X
Качество трека 99.9 %
CRC теста C94461C7
CRC копии C94461C7
Точное извлечение (достоверность 1) [221B0A0C] (AR v2)
Копирование... OK
Трек 8
Имя файла R:\Раздача 44\Wunder Weihnacht - Die Schonsten Lieder, Choir-und Orgelwerke zum fest - 2000 (3CD)\CD2\08 Weichnachtsoratorium BWV 248 - Nur ein Wink von seinen Händen.wav
Длина предзазора 0:00:04.08
Пиковый уровень 93.3 %
Скорость извлечения 7.9 X
Качество трека 100.0 %
CRC теста 84C2A593
CRC копии 84C2A593
Точное извлечение (достоверность 1) [4198216D] (AR v2)
Копирование... OK
Трек 9
Имя файла R:\Раздача 44\Wunder Weihnacht - Die Schonsten Lieder, Choir-und Orgelwerke zum fest - 2000 (3CD)\CD2\09 Ein deutsches Magnificat - Meine Seel erhebt den Herrn - Sinfonia.wav
Длина предзазора 0:00:04.60
Пиковый уровень 33.1 %
Скорость извлечения 3.5 X
Качество трека 99.8 %
CRC теста 6BEBDAE9
CRC копии 6BEBDAE9
Точное извлечение (достоверность 1) [2745922B] (AR v2)
Копирование... OK
Трек 10
Имя файла R:\Раздача 44\Wunder Weihnacht - Die Schonsten Lieder, Choir-und Orgelwerke zum fest - 2000 (3CD)\CD2\10 Ein deutsches Magnificat - Meine Seel erhebt den Herrn - Er gedenket der Bermherzigkeit.wav
Пиковый уровень 98.4 %
Скорость извлечения 6.1 X
Качество трека 99.9 %
CRC теста 5B4275EF
CRC копии 5B4275EF
Точное извлечение (достоверность 1) [8AAD778F] (AR v2)
Копирование... OK
Трек 11
Имя файла R:\Раздача 44\Wunder Weihnacht - Die Schonsten Lieder, Choir-und Orgelwerke zum fest - 2000 (3CD)\CD2\11 Ein deutsches Magnificat - Meine Seel erhebt den Herrn - Wie er geredt hat unsern Vätern.wav
Пиковый уровень 71.8 %
Скорость извлечения 6.0 X
Качество трека 100.0 %
CRC теста 5FDC8A48
CRC копии 5FDC8A48
Точное извлечение (достоверность 1) [0673E1A5] (AR v2)
Копирование... OK
Трек 12
Имя файла R:\Раздача 44\Wunder Weihnacht - Die Schonsten Lieder, Choir-und Orgelwerke zum fest - 2000 (3CD)\CD2\12 Kantate ''Nun komm, der Heiden Heiland'' BWV 61 - Komm, Jesu, komm zu deiner Kirche.wav
Длина предзазора 0:00:03.12
Пиковый уровень 66.0 %
Скорость извлечения 8.7 X
Качество трека 100.0 %
CRC теста F54096A7
CRC копии F54096A7
Точное извлечение (достоверность 1) [6E4DF74F] (AR v2)
Копирование... OK
Трек 13
Имя файла R:\Раздача 44\Wunder Weihnacht - Die Schonsten Lieder, Choir-und Orgelwerke zum fest - 2000 (3CD)\CD2\13 Der Messias - O du, die Wonne.wav
Длина предзазора 0:00:03.30
Пиковый уровень 59.3 %
Скорость извлечения 9.0 X
Качество трека 100.0 %
CRC теста 06D9E7E2
CRC копии 06D9E7E2
Точное извлечение (достоверность 1) [9216FEF5] (AR v2)
Копирование... OK
Трек 14
Имя файла R:\Раздача 44\Wunder Weihnacht - Die Schonsten Lieder, Choir-und Orgelwerke zum fest - 2000 (3CD)\CD2\14 Der Messias - O du, die Wonne (2).wav
Пиковый уровень 98.8 %
Скорость извлечения 8.1 X
Качество трека 100.0 %
CRC теста 4E7D5D45
CRC копии 4E7D5D45
Точное извлечение (достоверность 1) [1FB4F2D3] (AR v2)
Копирование... OK
Трек 15
Имя файла R:\Раздача 44\Wunder Weihnacht - Die Schonsten Lieder, Choir-und Orgelwerke zum fest - 2000 (3CD)\CD2\15 Kantate ''Dazu ist erschienen der Sohn Gottes'' BWV 40 - Dazu ist erschienen der Sohn Gottes.wav
Длина предзазора 0:00:03.70
Пиковый уровень 94.7 %
Скорость извлечения 9.4 X
Качество трека 100.0 %
CRC теста EBDDBC35
CRC копии EBDDBC35
Точное извлечение (достоверность 1) [7FB2F889] (AR v2)
Копирование... OK
Трек 16
Имя файла R:\Раздача 44\Wunder Weihnacht - Die Schonsten Lieder, Choir-und Orgelwerke zum fest - 2000 (3CD)\CD2\16 Concertus XII - Magnificat - Et exultavit.wav
Длина предзазора 0:00:05.12
Пиковый уровень 85.7 %
Скорость извлечения 9.2 X
Качество трека 100.0 %
CRC теста 8B02209E
CRC копии 8B02209E
Точное извлечение (достоверность 1) [FD8AB285] (AR v2)
Копирование... OK
Трек 17
Имя файла R:\Раздача 44\Wunder Weihnacht - Die Schonsten Lieder, Choir-und Orgelwerke zum fest - 2000 (3CD)\CD2\17 Concertus XII - Magnificat - Sicut locutus est.wav
Пиковый уровень 85.7 %
Скорость извлечения 9.7 X
Качество трека 100.0 %
CRC теста 97819DB6
CRC копии 97819DB6
Точное извлечение (достоверность 1) [BC58A78C] (AR v2)
Копирование... OK
Трек 18
Имя файла R:\Раздача 44\Wunder Weihnacht - Die Schonsten Lieder, Choir-und Orgelwerke zum fest - 2000 (3CD)\CD2\18 Messe in h-Moll BWV 232 - Osanna in excelsis.wav
Длина предзазора 0:00:03.63
Пиковый уровень 99.3 %
Скорость извлечения 9.0 X
Качество трека 100.0 %
CRC теста 301D1943
CRC копии 301D1943
Точное извлечение (достоверность 1) [B1441F5B] (AR v2)
Копирование... OK
Трек 19
Имя файла R:\Раздача 44\Wunder Weihnacht - Die Schonsten Lieder, Choir-und Orgelwerke zum fest - 2000 (3CD)\CD2\19 Der Messias - Halleluja!.wav
Длина предзазора 0:00:02.45
Пиковый уровень 95.1 %
Скорость извлечения 7.7 X
Качество трека 99.9 %
CRC теста DB1B5705
CRC копии DB1B5705
Точное извлечение (достоверность 1) [12CF7B35] (AR v2)
Копирование... OK
Все треки извлечены точно
Ошибок не произошло
Конец отчёта
==== Контрольная сумма отчёта 033F26463E6F082E7E7D0621BFD244E824070309901C719EAE23A3EF00A4DB3D ====

Содержание индексной карты (.CUE)

REM GENRE Classical
REM DATE 2000
REM DISCID 0A0F9713
REM COMMENT "ExactAudioCopy v1.0b3"
CATALOG 0782124825621
PERFORMER "Peter Schreier - Thomaerchor - Dresdner Kreuzchor"
TITLE "Wunderbare Weihnacht'"
FILE "01 Magnificat D-Dur BWV 243 - Magnificat.wav" WAVE
TRACK 01 AUDIO
TITLE "Magnificat D-Dur BWV 243 : Magnificat"
PERFORMER "Peter Schreier - Thomaerchor - Dresdner Kreuzchor"
INDEX 01 00:00:00
TRACK 02 AUDIO
TITLE "Weichnachtsoratorium BWV 248 : Ach, mein herzliebes Jesulein"
PERFORMER "Peter Schreier - Thomaerchor - Dresdner Kreuzchor"
INDEX 00 03:21:40
FILE "02 Weichnachtsoratorium BWV 248 - Ach, mein herzliebes Jesulein.wav" WAVE
INDEX 01 00:00:00
TRACK 03 AUDIO
TITLE "Der Messias : La.t alle Engel"
PERFORMER "Peter Schreier - Thomaerchor - Dresdner Kreuzchor"
INDEX 00 01:22:20
FILE "03 Der Messias - La.t alle Engel.wav" WAVE
INDEX 01 00:00:00
TRACK 04 AUDIO
TITLE "Utrechter Te Deum : Der hocherhabne Chor / Du bist der Herr"
PERFORMER "Peter Schreier - Thomaerchor - Dresdner Kreuzchor"
INDEX 00 01:27:42
FILE "04 Utrechter Te Deum - Der hocherhabne Chor , Du bist der Herr.wav" WAVE
INDEX 01 00:00:00
TRACK 05 AUDIO
TITLE "Deutsches Magnificat SWV 494 : Meine Seele erhebt den Herrn"
PERFORMER "Peter Schreier - Thomaerchor - Dresdner Kreuzchor"
INDEX 00 04:40:15
FILE "05 Deutsches Magnificat SWV 494 - Meine Seele erhebt den Herrn.wav" WAVE
INDEX 01 00:00:00
TRACK 06 AUDIO
TITLE "Kantate 'Erschallet, ihr Lieder' BWV 172 : Erschallet, ihr Lieder"
PERFORMER "Peter Schreier - Thomaerchor - Dresdner Kreuzchor"
INDEX 00 08:04:10
FILE "06 Kantate ''Erschallet, ihr Lieder'' BWV 172 - Erschallet, ihr Lieder.wav" WAVE
INDEX 01 00:00:00
TRACK 07 AUDIO
TITLE "Der Messias : Frohlock und jauchze"
PERFORMER "Peter Schreier - Thomaerchor - Dresdner Kreuzchor"
INDEX 00 04:20:47
FILE "07 Der Messias - Frohlock und jauchze.wav" WAVE
INDEX 01 00:00:00
TRACK 08 AUDIO
TITLE "Weichnachtsoratorium BWV 248 : Nur ein Wink von seinen Handen"
PERFORMER "Peter Schreier - Thomaerchor - Dresdner Kreuzchor"
INDEX 00 04:23:62
FILE "08 Weichnachtsoratorium BWV 248 - Nur ein Wink von seinen Handen.wav" WAVE
INDEX 01 00:00:00
TRACK 09 AUDIO
TITLE "Ein deutsches Magnificat : Meine Seel erhebt den Herrn : Sinfonia"
PERFORMER "Peter Schreier - Thomaerchor - Dresdner Kreuzchor"
INDEX 00 03:43:40
FILE "09 Ein deutsches Magnificat - Meine Seel erhebt den Herrn - Sinfonia.wav" WAVE
INDEX 01 00:00:00
FILE "10 Ein deutsches Magnificat - Meine Seel erhebt den Herrn - Er gedenket der Bermherzigkeit.wav" WAVE
TRACK 10 AUDIO
TITLE "Ein deutsches Magnificat : Meine Seel erhebt den Herrn : Er gedenket der Berm..."
PERFORMER "Peter Schreier - Thomaerchor - Dresdner Kreuzchor"
INDEX 01 00:00:00
FILE "11 Ein deutsches Magnificat - Meine Seel erhebt den Herrn - Wie er geredt hat unsern Vatern.wav" WAVE
TRACK 11 AUDIO
TITLE "Ein deutsches Magnificat : Meine Seel erhebt den Herrn : Wie er geredt hat un..."
PERFORMER "Peter Schreier - Thomaerchor - Dresdner Kreuzchor"
INDEX 01 00:00:00
TRACK 12 AUDIO
TITLE "Kantate 'Nun komm, der Heiden Heiland' BWV 61 : Komm, Jesu, komm zu deiner Ki..."
PERFORMER "Peter Schreier - Thomaerchor - Dresdner Kreuzchor"
INDEX 00 00:56:48
FILE "12 Kantate ''Nun komm, der Heiden Heiland'' BWV 61 - Komm, Jesu, komm zu deiner Kirche.wav" WAVE
INDEX 01 00:00:00
TRACK 13 AUDIO
TITLE "Der Messias : O du, die Wonne"
PERFORMER "Peter Schreier - Thomaerchor - Dresdner Kreuzchor"
INDEX 00 04:11:25
FILE "13 Der Messias - O du, die Wonne.wav" WAVE
INDEX 01 00:00:00
FILE "14 Der Messias - O du, die Wonne (2).wav" WAVE
TRACK 14 AUDIO
TITLE "Der Messias : O du, die Wonne (2)"
PERFORMER "Peter Schreier - Thomaerchor - Dresdner Kreuzchor"
INDEX 01 00:00:00
TRACK 15 AUDIO
TITLE "Kantate 'Dazu ist erschienen der Sohn Gottes' BWV 40 : Dazu ist erschienen de..."
PERFORMER "Peter Schreier - Thomaerchor - Dresdner Kreuzchor"
INDEX 00 02:00:10
FILE "15 Kantate ''Dazu ist erschienen der Sohn Gottes'' BWV 40 - Dazu ist erschienen der Sohn Gottes.wav" WAVE
INDEX 01 00:00:00
TRACK 16 AUDIO
TITLE "Concertus XII : Magnificat : Et exultavit"
PERFORMER "Peter Schreier - Thomaerchor - Dresdner Kreuzchor"
INDEX 00 04:11:70
FILE "16 Concertus XII - Magnificat - Et exultavit.wav" WAVE
INDEX 01 00:00:00
FILE "17 Concertus XII - Magnificat - Sicut locutus est.wav" WAVE
TRACK 17 AUDIO
TITLE "Concertus XII : Magnificat : Sicut locutus est"
PERFORMER "Peter Schreier - Thomaerchor - Dresdner Kreuzchor"
INDEX 01 00:00:00
TRACK 18 AUDIO
TITLE "Messe in h-Moll BWV 232 : Osanna in excelsis"
PERFORMER "Peter Schreier - Thomaerchor - Dresdner Kreuzchor"
INDEX 00 03:58:20
FILE "18 Messe in h-Moll BWV 232 - Osanna in excelsis.wav" WAVE
INDEX 01 00:00:00
TRACK 19 AUDIO
TITLE "Der Messias : Halleluja!"
PERFORMER "Peter Schreier - Thomaerchor - Dresdner Kreuzchor"
INDEX 00 02:34:72
FILE "19 Der Messias - Halleluja!.wav" WAVE
INDEX 01 00:00:00

CD3

01. Der Tag, der ist so freudenreich (Fuga) [0:04:37.17]
02. Vom Himmel hoch, da komm ich her BWV 700 [0:02:48.43]
03. Fughetta : Vom Himmel hoch, da komm ich her BWV 701 [0:01:22.45]
04. Herr Christ, der einig Gottes Sohn BuxWV 191 [0:02:46.32]
05. Vom Himmel hoch, da komm ich her [0:01:39.73]
06. Fughetta : Gottes Sohn ist kommen BWV 703 [0:00:54.32]
07. Magnificat Primi Toni d-Moll [0:08:47.35]
08. Nun freut euch, liebe Christen g'mein BWV 734 [0:02:10.65]
09. Vom Himmel hoch, da komm ich her (2) [0:01:40.38]
10. Es ist ein Ros entsprungen [0:01:20.20]
11. Nun komm, der Heiden Heiland [0:03:49.52]
12. Nun komm, der Heiden Heiland (2) [0:05:55.23]
13. Lobt Gott, ihr Christen, all zugleich [0:03:59.60]
14. In dulci jubilo [0:03:09.02]
15. Jesus Christus, unser Heiland, der von uns den Gotteszorn wandt [0:06:57.33]
16. Gelobet seist du, Jesu Christ [0:05:56.35]
17. Lobt Gott, ihr Christen, all zugleich (2) [0:01:58.42]
18. Der Tag, der ist so freudenreich BWV 605 [0:02:23.23]
19. Toccata c-Moll [0:02:29.37]
Исполнители:
Peter Schreier - Thomanerchor Leipzig - Dresdner Kreuzchor u.a.

Лог создания рипа

Exact Audio Copy V1.0 beta 3 from 29. August 2011
Отчёт EAC об извлечении, выполненном 25. апреля 2015, 16:44
Peter Schreier - Thomanerchor - Dresdner Kreuzchor / Wunderbare Weihnacht'
Дисковод: ASUS DRW-1814BLT Adapter: 4 ID: 0
Режим чтения : Достоверность
Использование точного потока : Да
Отключение кэша аудио : Да
Использование указателей C2 : Нет
Коррекция смещения при чтении : 6
Способность читать области Lead-in и Lead-out : Нет
Заполнение пропущенных сэмплов тишиной : Да
Удаление блоков с тишиной в начале и конце : Нет
При вычислениях CRC использовались нулевые сэмплы : Да
Интерфейс : Встроенный Win32-интерфейс для Win NT/2000
Обработка зазоров : Добавлено к предыдущему треку
Выходной формат : Пользовательский кодировщик
Выбранный битрейт : 128 kBit/s
Качество : Высокий
Добавление ID3-тега : Нет
Утилита сжатия : C:\Program Files\Exact Audio Copy\Flac\flac.exe
Дополнительные параметры : -V -8 -T "Genre=%genre%" -T "Artist=%artist%" -T "Title=%title%" -T "Album=%albumtitle%" -T "Date=%year%" -T "Tracknumber=%tracknr%" -T "Comment=EAC1.0b2 FLAC -8" %source%
TOC извлечённого CD
Трек | Старт | Длительность | Начальный сектор | Конечный сектор
---------------------------------------------------------------------
1 | 0:00.00 | 4:37.17 | 0 | 20791
2 | 4:37.17 | 2:48.43 | 20792 | 33434
3 | 7:25.60 | 1:22.45 | 33435 | 39629
4 | 8:48.30 | 2:46.32 | 39630 | 52111
5 | 11:34.62 | 1:39.73 | 52112 | 59609
6 | 13:14.60 | 0:54.32 | 59610 | 63691
7 | 14:09.17 | 8:47.35 | 63692 | 103251
8 | 22:56.52 | 2:10.65 | 103252 | 113066
9 | 25:07.42 | 1:40.38 | 113067 | 120604
10 | 26:48.05 | 1:20.20 | 120605 | 126624
11 | 28:08.25 | 3:49.52 | 126625 | 143851
12 | 31:58.02 | 5:55.23 | 143852 | 170499
13 | 37:53.25 | 3:59.60 | 170500 | 188484
14 | 41:53.10 | 3:09.02 | 188485 | 202661
15 | 45:02.12 | 6:57.33 | 202662 | 233969
16 | 51:59.45 | 5:56.35 | 233970 | 260704
17 | 57:56.05 | 1:58.42 | 260705 | 269596
18 | 59:54.47 | 2:23.23 | 269597 | 280344
19 | 62:17.70 | 2:29.37 | 280345 | 291556
Трек 1
Имя файла R:\Раздача 44\Wunder Weihnacht - Die Schonsten Lieder, Choir-und Orgelwerke zum fest - 2000 (3CD)\CD3\01 Der Tag, der ist so freudenreich (Fuga).wav
Длина предзазора 0:00:02.00
Пиковый уровень 97.6 %
Скорость извлечения 3.9 X
Качество трека 99.9 %
CRC теста 41C08E5F
CRC копии 41C08E5F
Точное извлечение (достоверность 1) [98FA7645] (AR v2)
Копирование... OK
Трек 2
Имя файла R:\Раздача 44\Wunder Weihnacht - Die Schonsten Lieder, Choir-und Orgelwerke zum fest - 2000 (3CD)\CD3\02 Vom Himmel hoch, da komm ich her BWV 700.wav
Пиковый уровень 96.5 %
Скорость извлечения 4.4 X
Качество трека 100.0 %
CRC теста 30447242
CRC копии 30447242
Точное извлечение (достоверность 1) [3F2DE014] (AR v2)
Копирование... OK
Трек 3
Имя файла R:\Раздача 44\Wunder Weihnacht - Die Schonsten Lieder, Choir-und Orgelwerke zum fest - 2000 (3CD)\CD3\03 Fughetta - Vom Himmel hoch, da komm ich her BWV 701.wav
Пиковый уровень 30.7 %
Скорость извлечения 4.5 X
Качество трека 100.0 %
CRC теста D01B63B1
CRC копии D01B63B1
Точное извлечение (достоверность 1) [66107C33] (AR v2)
Копирование... OK
Трек 4
Имя файла R:\Раздача 44\Wunder Weihnacht - Die Schonsten Lieder, Choir-und Orgelwerke zum fest - 2000 (3CD)\CD3\04 Herr Christ, der einig Gottes Sohn BuxWV 191.wav
Длина предзазора 0:00:03.20
Пиковый уровень 68.3 %
Скорость извлечения 5.7 X
Качество трека 100.0 %
CRC теста E473A581
CRC копии E473A581
Точное извлечение (достоверность 1) [E6C20135] (AR v2)
Копирование... OK
Трек 5
Имя файла R:\Раздача 44\Wunder Weihnacht - Die Schonsten Lieder, Choir-und Orgelwerke zum fest - 2000 (3CD)\CD3\05 Vom Himmel hoch, da komm ich her.wav
Длина предзазора 0:00:02.40
Пиковый уровень 37.5 %
Скорость извлечения 5.2 X
Качество трека 100.0 %
CRC теста 6724B903
CRC копии 6724B903
Точное извлечение (достоверность 1) [7FD4A48A] (AR v2)
Копирование... OK
Трек 6
Имя файла R:\Раздача 44\Wunder Weihnacht - Die Schonsten Lieder, Choir-und Orgelwerke zum fest - 2000 (3CD)\CD3\06 Fughetta - Gottes Sohn ist kommen BWV 703.wav
Длина предзазора 0:00:01.33
Пиковый уровень 38.2 %
Скорость извлечения 2.6 X
Качество трека 99.8 %
CRC теста AB72B55B
CRC копии AB72B55B
Точное извлечение (достоверность 1) [2F054166] (AR v2)
Копирование... OK
Трек 7
Имя файла R:\Раздача 44\Wunder Weihnacht - Die Schonsten Lieder, Choir-und Orgelwerke zum fest - 2000 (3CD)\CD3\07 Magnificat Primi Toni d-Moll.wav
Длина предзазора 0:00:03.57
Пиковый уровень 98.9 %
Скорость извлечения 6.4 X
Качество трека 100.0 %
CRC теста 2F8566F7
CRC копии 2F8566F7
Точное извлечение (достоверность 1) [ACAB8C72] (AR v2)
Копирование... OK
Трек 8
Имя файла R:\Раздача 44\Wunder Weihnacht - Die Schonsten Lieder, Choir-und Orgelwerke zum fest - 2000 (3CD)\CD3\08 Nun freut euch, liebe Christen g'mein BWV 734.wav
Длина предзазора 0:00:05.40
Пиковый уровень 51.5 %
Скорость извлечения 6.7 X
Качество трека 100.0 %
CRC теста 3548A8DE
CRC копии 3548A8DE
Точное извлечение (достоверность 1) [390C2BFF] (AR v2)
Копирование... OK
Трек 9
Имя файла R:\Раздача 44\Wunder Weihnacht - Die Schonsten Lieder, Choir-und Orgelwerke zum fest - 2000 (3CD)\CD3\09 Vom Himmel hoch, da komm ich her (2).wav
Длина предзазора 0:00:02.05
Пиковый уровень 82.6 %
Скорость извлечения 6.3 X
Качество трека 100.0 %
CRC теста D51B6C47
CRC копии D51B6C47
Точное извлечение (достоверность 1) [004AC726] (AR v2)
Копирование... OK
Трек 10
Имя файла R:\Раздача 44\Wunder Weihnacht - Die Schonsten Lieder, Choir-und Orgelwerke zum fest - 2000 (3CD)\CD3\10 Es ist ein Ros entsprungen.wav
Длина предзазора 0:00:03.25
Пиковый уровень 64.7 %
Скорость извлечения 6.0 X
Качество трека 100.0 %
CRC теста 47273866
CRC копии 47273866
Точное извлечение (достоверность 1) [FD8E6912] (AR v2)
Копирование... OK
Трек 11
Имя файла R:\Раздача 44\Wunder Weihnacht - Die Schonsten Lieder, Choir-und Orgelwerke zum fest - 2000 (3CD)\CD3\11 Nun komm, der Heiden Heiland.wav
Длина предзазора 0:00:02.70
Пиковый уровень 96.6 %
Скорость извлечения 7.9 X
Качество трека 100.0 %
CRC теста 53EDAC11
CRC копии 53EDAC11
Точное извлечение (достоверность 1) [F1D95877] (AR v2)
Копирование... OK
Трек 12
Имя файла R:\Раздача 44\Wunder Weihnacht - Die Schonsten Lieder, Choir-und Orgelwerke zum fest - 2000 (3CD)\CD3\12 Nun komm, der Heiden Heiland (2).wav
Длина предзазора 0:00:04.12
Пиковый уровень 89.0 %
Скорость извлечения 8.7 X
Качество трека 100.0 %
CRC теста B4517124
CRC копии B4517124
Точное извлечение (достоверность 1) [45B67A9F] (AR v2)
Копирование... OK
Трек 13
Имя файла R:\Раздача 44\Wunder Weihnacht - Die Schonsten Lieder, Choir-und Orgelwerke zum fest - 2000 (3CD)\CD3\13 Lobt Gott, ihr Christen, all zugleich.wav
Пиковый уровень 82.1 %
Скорость извлечения 8.6 X
Качество трека 100.0 %
CRC теста 77AF3897
CRC копии 77AF3897
Точное извлечение (достоверность 1) [458C177A] (AR v2)
Копирование... OK
Трек 14
Имя файла R:\Раздача 44\Wunder Weihnacht - Die Schonsten Lieder, Choir-und Orgelwerke zum fest - 2000 (3CD)\CD3\14 In dulci jubilo.wav
Длина предзазора 0:00:02.35
Пиковый уровень 51.1 %
Скорость извлечения 8.6 X
Качество трека 100.0 %
CRC теста 36558DCC
CRC копии 36558DCC
Точное извлечение (достоверность 1) [D8D7B353] (AR v2)
Копирование... OK
Трек 15
Имя файла R:\Раздача 44\Wunder Weihnacht - Die Schonsten Lieder, Choir-und Orgelwerke zum fest - 2000 (3CD)\CD3\15 Jesus Christus, unser Heiland, der von uns den Gotteszorn wandt.wav
Длина предзазора 0:00:02.45
Пиковый уровень 64.9 %
Скорость извлечения 9.8 X
Качество трека 100.0 %
CRC теста 35529A23
CRC копии 35529A23
Точное извлечение (достоверность 1) [7F563CD3] (AR v2)
Копирование... OK
Трек 16
Имя файла R:\Раздача 44\Wunder Weihnacht - Die Schonsten Lieder, Choir-und Orgelwerke zum fest - 2000 (3CD)\CD3\16 Gelobet seist du, Jesu Christ.wav
Длина предзазора 0:00:02.68
Пиковый уровень 96.8 %
Скорость извлечения 10.1 X
Качество трека 100.0 %
CRC теста B3AF7C71
CRC копии B3AF7C71
Точное извлечение (достоверность 1) [23C2447E] (AR v2)
Копирование... OK
Трек 17
Имя файла R:\Раздача 44\Wunder Weihnacht - Die Schonsten Lieder, Choir-und Orgelwerke zum fest - 2000 (3CD)\CD3\17 Lobt Gott, ihr Christen, all zugleich (2).wav
Длина предзазора 0:00:02.45
Пиковый уровень 49.4 %
Скорость извлечения 8.4 X
Качество трека 100.0 %
CRC теста 379A61D3
CRC копии 379A61D3
Точное извлечение (достоверность 1) [29F957E0] (AR v2)
Копирование... OK
Трек 18
Имя файла R:\Раздача 44\Wunder Weihnacht - Die Schonsten Lieder, Choir-und Orgelwerke zum fest - 2000 (3CD)\CD3\18 Der Tag, der ist so freudenreich BWV 605.wav
Длина предзазора 0:00:02.52
Пиковый уровень 57.1 %
Скорость извлечения 8.9 X
Качество трека 100.0 %
CRC теста 59CC48D8
CRC копии 59CC48D8
Точное извлечение (достоверность 1) [BBE1A10F] (AR v2)
Копирование... OK
Трек 19
Имя файла R:\Раздача 44\Wunder Weihnacht - Die Schonsten Lieder, Choir-und Orgelwerke zum fest - 2000 (3CD)\CD3\19 Toccata c-Moll.wav
Длина предзазора 0:00:03.20
Пиковый уровень 98.2 %
Скорость извлечения 9.1 X
Качество трека 100.0 %
CRC теста A7F952DB
CRC копии A7F952DB
Точное извлечение (достоверность 1) [AB846FA3] (AR v2)
Копирование... OK
Все треки извлечены точно
Ошибок не произошло
Конец отчёта
==== Контрольная сумма отчёта F3BCEBAD9FCDD5F68293D81755CD311FABF38D880DB05F71D629A45E8F8511B5 ====

Содержание индексной карты (.CUE)

REM GENRE Classical
REM DATE 2000
REM DISCID 1F0F2F13
REM COMMENT "ExactAudioCopy v1.0b3"
CATALOG 0782124825621
PERFORMER "Peter Schreier - Thomanerchor - Dresdner Kreuzchor"
TITLE "Wunderbare Weihnacht'"
FILE "01 Der Tag, der ist so freudenreich (Fuga).wav" WAVE
TRACK 01 AUDIO
TITLE "Der Tag, der ist so freudenreich (Fuga)"
PERFORMER "Peter Schreier - Thomanerchor - Dresdner Kreuzchor"
INDEX 01 00:00:00
FILE "02 Vom Himmel hoch, da komm ich her BWV 700.wav" WAVE
TRACK 02 AUDIO
TITLE "Vom Himmel hoch, da komm ich her BWV 700"
PERFORMER "Peter Schreier - Thomanerchor - Dresdner Kreuzchor"
INDEX 01 00:00:00
FILE "03 Fughetta - Vom Himmel hoch, da komm ich her BWV 701.wav" WAVE
TRACK 03 AUDIO
TITLE "Fughetta : Vom Himmel hoch, da komm ich her BWV 701"
PERFORMER "Peter Schreier - Thomanerchor - Dresdner Kreuzchor"
INDEX 01 00:00:00
TRACK 04 AUDIO
TITLE "Herr Christ, der einig Gottes Sohn BuxWV 191"
PERFORMER "Peter Schreier - Thomanerchor - Dresdner Kreuzchor"
INDEX 00 01:19:25
FILE "04 Herr Christ, der einig Gottes Sohn BuxWV 191.wav" WAVE
INDEX 01 00:00:00
TRACK 05 AUDIO
TITLE "Vom Himmel hoch, da komm ich her"
PERFORMER "Peter Schreier - Thomanerchor - Dresdner Kreuzchor"
INDEX 00 02:43:67
FILE "05 Vom Himmel hoch, da komm ich her.wav" WAVE
INDEX 01 00:00:00
TRACK 06 AUDIO
TITLE "Fughetta : Gottes Sohn ist kommen BWV 703"
PERFORMER "Peter Schreier - Thomanerchor - Dresdner Kreuzchor"
INDEX 00 01:38:40
FILE "06 Fughetta - Gottes Sohn ist kommen BWV 703.wav" WAVE
INDEX 01 00:00:00
TRACK 07 AUDIO
TITLE "Magnificat Primi Toni d-Moll"
PERFORMER "Peter Schreier - Thomanerchor - Dresdner Kreuzchor"
INDEX 00 00:50:50
FILE "07 Magnificat Primi Toni d-Moll.wav" WAVE
INDEX 01 00:00:00
TRACK 08 AUDIO
TITLE "Nun freut euch, liebe Christen g'mein BWV 734"
PERFORMER "Peter Schreier - Thomanerchor - Dresdner Kreuzchor"
INDEX 00 08:41:70
FILE "08 Nun freut euch, liebe Christen g'mein BWV 734.wav" WAVE
INDEX 01 00:00:00
TRACK 09 AUDIO
TITLE "Vom Himmel hoch, da komm ich her (2)"
PERFORMER "Peter Schreier - Thomanerchor - Dresdner Kreuzchor"
INDEX 00 02:08:60
FILE "09 Vom Himmel hoch, da komm ich her (2).wav" WAVE
INDEX 01 00:00:00
TRACK 10 AUDIO
TITLE "Es ist ein Ros entsprungen"
PERFORMER "Peter Schreier - Thomanerchor - Dresdner Kreuzchor"
INDEX 00 01:37:13
FILE "10 Es ist ein Ros entsprungen.wav" WAVE
INDEX 01 00:00:00
TRACK 11 AUDIO
TITLE "Nun komm, der Heiden Heiland"
PERFORMER "Peter Schreier - Thomanerchor - Dresdner Kreuzchor"
INDEX 00 01:17:25
FILE "11 Nun komm, der Heiden Heiland.wav" WAVE
INDEX 01 00:00:00
TRACK 12 AUDIO
TITLE "Nun komm, der Heiden Heiland (2)"
PERFORMER "Peter Schreier - Thomanerchor - Dresdner Kreuzchor"
INDEX 00 03:45:40
FILE "12 Nun komm, der Heiden Heiland (2).wav" WAVE
INDEX 01 00:00:00
FILE "13 Lobt Gott, ihr Christen, all zugleich.wav" WAVE
TRACK 13 AUDIO
TITLE "Lobt Gott, ihr Christen, all zugleich"
PERFORMER "Peter Schreier - Thomanerchor - Dresdner Kreuzchor"
INDEX 01 00:00:00
TRACK 14 AUDIO
TITLE "In dulci jubilo"
PERFORMER "Peter Schreier - Thomanerchor - Dresdner Kreuzchor"
INDEX 00 03:57:25
FILE "14 In dulci jubilo.wav" WAVE
INDEX 01 00:00:00
TRACK 15 AUDIO
TITLE "Jesus Christus, unser Heiland, der von uns den Gotteszorn wandt"
PERFORMER "Peter Schreier - Thomanerchor - Dresdner Kreuzchor"
INDEX 00 03:06:32
FILE "15 Jesus Christus, unser Heiland, der von uns den Gotteszorn wandt.wav" WAVE
INDEX 01 00:00:00
TRACK 16 AUDIO
TITLE "Gelobet seist du, Jesu Christ"
PERFORMER "Peter Schreier - Thomanerchor - Dresdner Kreuzchor"
INDEX 00 06:54:40
FILE "16 Gelobet seist du, Jesu Christ.wav" WAVE
INDEX 01 00:00:00
TRACK 17 AUDIO
TITLE "Lobt Gott, ihr Christen, all zugleich (2)"
PERFORMER "Peter Schreier - Thomanerchor - Dresdner Kreuzchor"
INDEX 00 05:53:65
FILE "17 Lobt Gott, ihr Christen, all zugleich (2).wav" WAVE
INDEX 01 00:00:00
TRACK 18 AUDIO
TITLE "Der Tag, der ist so freudenreich BWV 605"
PERFORMER "Peter Schreier - Thomanerchor - Dresdner Kreuzchor"
INDEX 00 01:55:65
FILE "18 Der Tag, der ist so freudenreich BWV 605.wav" WAVE
INDEX 01 00:00:00
TRACK 19 AUDIO
TITLE "Toccata c-Moll"
PERFORMER "Peter Schreier - Thomanerchor - Dresdner Kreuzchor"
INDEX 00 02:20:03
FILE "19 Toccata c-Moll.wav" WAVE
INDEX 01 00:00:00
[teatrix.ru].t21302.torrent 
Торрент: Зарегистрирован [ 2016-03-20 11:59 ] · 0ABB0A364411469A9BA72C95FEA349908F34D4A5

Скачать .torrent

Скачать

25 KB

Статус: проверено
Скачан: 0 раз
Размер: 955 MB
terms.php



Быстрый ответ

Имя:

      
Для отправки сообщений необходимо включить JavaScript
Показать сообщения:    

Текущее время: 08-Дек 09:00

Часовой пояс: UTC + 3


Вы можете начинать темы
Вы можете отвечать на сообщения
Вы не можете редактировать свои сообщения
Вы не можете удалять свои сообщения
Вы не можете голосовать в опросах
Вы не можете прикреплять файлы к сообщениям
Вы можете скачивать файлы