(Opera) Pizzetti - Assassinio nella Cattedrale (Gencer, Puglisi, Ortica, Dondi, Zaccaria, Bertocci - Milan Teatro alla Scala Chorus & Orchestra, Gavazzeni) - 2003, APE (image+.cue) lossless


 

[Цитировать]

Ildebrando Pizzetti (1880 - 1968) - Assassinio nella Cattedrale
Жанр: Opera
Страна-производитель диска: USA
Год издания диска: 2003
Издатель (лейбл): Opera D'Oro
Номер по каталогу: OPD-1396
Дата записи: 1958
Аудиокодек: APE
Тип рипа: image+.cue
Битрейт аудио: lossless
Продолжительность: 38'37+46'23
Источник: собственный рип
Наличие сканов в содержимом раздачи: да
Треклист:
Треклист:

CD1

1. Act One. Fermiamoci qui, presso la cattedrale
2. Act One. Trascorsa ormai l'estate, fan sette anni da ch ci lasciò
3. Act One. Lasciatele alla loro esaltazione
4. Act One. Vi sono più che grato per le vostre attenzioni cortesi
5. Act One. Vedete, Signor mio, ch'io non m'indulgio in cerimonie
6. Act One. Vostra Signoria forse non si rammenta più di me
7. Act One. Sono un visitatore inaspettato
8. Act One. Bene, Tommaso! Dura da piegare è la tuo volontà
9. Act One. Signore, noi non siam state felici

CD2

1. [Intermezzo] Figli cari di Dio
2. Act Two. Neppur oggi, a Natale, al tempo della Nascita
3. Act Two. Noi attendiamo...Noi tutte attendiamo
4. Act Two. Servi del Re. Per ordine del Re
5. Act Two. Da poi che il Re v'ebbe restituito nel vostro privilegio
6. Act Two. Pace, pace! E sia pace nelle vostre visioni
7. Act Two. Dies irae, dies illa, solvet saeclum in favilla
8. Act Two. Venite via, Signore...Presto, presto
9. Act Two. Vi preghiamo, Signori, d'ascoltarci
1. Act Two. Noi ti lodiamo, Dio, per la tua gloria
Исполнители:
Ildebrando Pizzetti (1880 - 1968) - Assassinio nella Cattedrale
Opera in 2 Acts
Lino Puglisi (Baritone)
Mario Ortica (Tenor)
Dino Dondi (Baritone)
Nicola Zaccaria (Bass)
Aldo Bertocci (Tenor)
Leyla Gencer (Soprano)
Nicola Rossi-Lemeni (Bass)
Enrico Campi (Bass)
Silvio Maionica (Bass)
Marco Stefanoni (Bass)
Gabriella Carturan (Mezzo Soprano)
Antonio Cassinelli (Bass)
Milan Teatro alla Scala Chorus & Orchestra
Gianandrea Gavazzeni, Conductor

Лог создания рипа

CD1

Exact Audio Copy V1.0 beta 3 from 29. August 2011
EAC extraction logfile from 14. May 2015, 17:08
Pizzetti / Assassinio Nella Cattedrale, Gavazzeni CD1
Used drive : TSSTcorpCDDVDW SE-208AB Adapter: 1 ID: 0
Read mode : Secure
Utilize accurate stream : Yes
Defeat audio cache : Yes
Make use of C2 pointers : No
Read offset correction : 6
Overread into Lead-In and Lead-Out : No
Fill up missing offset samples with silence : Yes
Delete leading and trailing silent blocks : No
Null samples used in CRC calculations : Yes
Used interface : Native Win32 interface for Win NT & 2000
Used output format : Monkey's Audio Lossless Encoder
Selected bitrate : High Lossless Compression
Quality : High
Add ID3 tag : Yes
Command line compressor : C:\Program Files (x86)\Exact Audio Copy\MAC\MAC.exe
TOC of the extracted CD
Track | Start | Length | Start sector | End sector
---------------------------------------------------------
1 | 0:00.00 | 5:42.65 | 0 | 25714
2 | 5:42.65 | 5:26.01 | 25715 | 50165
3 | 11:08.66 | 3:17.66 | 50166 | 65006
4 | 14:26.57 | 2:58.44 | 65007 | 78400
5 | 17:25.26 | 3:03.45 | 78401 | 92170
6 | 20:28.71 | 4:49.01 | 92171 | 113846
7 | 25:17.72 | 3:15.05 | 113847 | 128476
8 | 28:33.02 | 3:34.67 | 128477 | 144593
9 | 32:07.69 | 6:29.00 | 144594 | 173768
Range status and errors
Selected range
Filename D:\EAC\Pizzetti - Assassinio Nella Cattedrale, Gavazzeni CD1.wav
Peak level 100.0 %
Extraction speed 1.7 X
Range quality 100.0 %
Test CRC 301E615B
Copy CRC 301E615B
Copy OK
No errors occurred
AccurateRip summary
Track 1 accurately ripped (confidence 2) [36CD1E05] (AR v1)
Track 2 accurately ripped (confidence 2) [82A6A0FE] (AR v1)
Track 3 accurately ripped (confidence 2) [9D3F98FA] (AR v1)
Track 4 accurately ripped (confidence 2) [5CD1A721] (AR v1)
Track 5 accurately ripped (confidence 2) [3C920390] (AR v1)
Track 6 accurately ripped (confidence 2) [16AFA0A5] (AR v1)
Track 7 accurately ripped (confidence 2) [122ABE60] (AR v1)
Track 8 accurately ripped (confidence 2) [A6443C05] (AR v1)
Track 9 accurately ripped (confidence 2) [2004E5EA] (AR v1)
All tracks accurately ripped
End of status report
---- CUETools DB Plugin V2.1.3
[CTDB TOCID: d.0MTPyh1Nj_sTM3IlEjxqG80yA-] found, Submit result: d.0MTPyh1Nj_sTM3IlEjxqG80yA- has been confirmed
[bc44b435] (1/1) Accurately ripped
==== Log checksum B3C8B99DBEC1BD17041EA52B02C8E0C5C7915371C76B13F46047C0E9C54C3DE8 ====

CD2

Exact Audio Copy V1.0 beta 3 from 29. August 2011
EAC extraction logfile from 14. May 2015, 17:27
Pizzetti / Assassinio Nella Cattedrale, Gavazzeni CD2
Used drive : TS8XDVDSTRANSCEND Adapter: 1 ID: 1
Read mode : Secure
Utilize accurate stream : Yes
Defeat audio cache : Yes
Make use of C2 pointers : No
Read offset correction : 6
Overread into Lead-In and Lead-Out : No
Fill up missing offset samples with silence : Yes
Delete leading and trailing silent blocks : No
Null samples used in CRC calculations : Yes
Used interface : Native Win32 interface for Win NT & 2000
Used output format : Monkey's Audio Lossless Encoder
Selected bitrate : High Lossless Compression
Quality : High
Add ID3 tag : Yes
Command line compressor : C:\Program Files (x86)\Exact Audio Copy\MAC\MAC.exe
TOC of the extracted CD
Track | Start | Length | Start sector | End sector
---------------------------------------------------------
1 | 0:00.00 | 10:11.58 | 0 | 45882
2 | 10:11.58 | 4:15.06 | 45883 | 65013
3 | 14:26.64 | 3:14.41 | 65014 | 79604
4 | 17:41.30 | 3:47.33 | 79605 | 96662
5 | 21:28.63 | 4:49.55 | 96663 | 118392
6 | 26:18.43 | 3:29.72 | 118393 | 134139
7 | 29:48.40 | 3:57.62 | 134140 | 151976
8 | 33:46.27 | 4:10.68 | 151977 | 170794
9 | 37:57.20 | 3:10.69 | 170795 | 185113
10 | 41:08.14 | 5:14.73 | 185114 | 208736
Range status and errors
Selected range
Filename D:\EAC\Pizzetti - Assassinio Nella Cattedrale, Gavazzeni CD2.wav
Peak level 74.4 %
Extraction speed 1.8 X
Range quality 99.9 %
Test CRC 149394E3
Copy CRC 149394E3
Copy OK
No errors occurred
AccurateRip summary
Track 1 accurately ripped (confidence 2) [16D198C6] (AR v1)
Track 2 accurately ripped (confidence 2) [9894C95F] (AR v1)
Track 3 accurately ripped (confidence 2) [4C69DF7E] (AR v1)
Track 4 accurately ripped (confidence 2) [C58589B0] (AR v1)
Track 5 accurately ripped (confidence 2) [E56AD4A0] (AR v1)
Track 6 accurately ripped (confidence 2) [76E50846] (AR v1)
Track 7 accurately ripped (confidence 2) [EF6FCCA8] (AR v1)
Track 8 accurately ripped (confidence 2) [6905D340] (AR v1)
Track 9 accurately ripped (confidence 2) [6B75F0B5] (AR v1)
Track 10 accurately ripped (confidence 2) [214CDC8B] (AR v1)
All tracks accurately ripped
End of status report
---- CUETools DB Plugin V2.1.3
[CTDB TOCID: bp_WqBsbLldh0KwtCsPPOdRs6tQ-] found, Submit result: unrecognized or virtual drive
[9f9eb161] (1/1) Accurately ripped
==== Log checksum 69A0F0C1C34B5C325362654D51E44D0B614C0E4DF6C8088947F6168B7379FD69 ====

Содержание индексной карты (.CUE)

CD1

REM GENRE Opera
REM DATE 1958
REM DISCID 75090C09
REM COMMENT "ExactAudioCopy v1.0b3"
PERFORMER "Pizzetti"
TITLE "Assassinio Nella Cattedrale, Gavazzeni CD1"
FILE "Pizzetti - Assassinio Nella Cattedrale, Gavazzeni CD1.ape" WAVE
TRACK 01 AUDIO
TITLE "Fermiamoci Qui, Presso La Cattedrale"
PERFORMER "Pizzetti"
FLAGS DCP
INDEX 01 00:00:00
TRACK 02 AUDIO
TITLE "Trascorsa Ormai L'estate, Fan Sette Anni Da Che Ci Lasciò"
PERFORMER "Pizzetti"
FLAGS DCP
INDEX 01 05:42:65
TRACK 03 AUDIO
TITLE "Lasciatele Alla Loro Esaltazione"
PERFORMER "Pizzetti"
FLAGS DCP
INDEX 01 11:08:66
TRACK 04 AUDIO
TITLE "Vi Sono Più Che Grato Per Le Vostre Attenzioni Cortesi"
PERFORMER "Pizzetti"
FLAGS DCP
INDEX 01 14:26:57
TRACK 05 AUDIO
TITLE "Vedete, Signor Mio, Ch'io Non M'indulgio In Cerimonie"
PERFORMER "Pizzetti"
FLAGS DCP
INDEX 01 17:25:26
TRACK 06 AUDIO
TITLE "Vostra Signoria Forse Non Si Rammenta Più Di Me"
PERFORMER "Pizzetti"
FLAGS DCP
INDEX 01 20:28:71
TRACK 07 AUDIO
TITLE "Sono Un Visitatore Inaspettato"
PERFORMER "Pizzetti"
FLAGS DCP
INDEX 01 25:17:72
TRACK 08 AUDIO
TITLE "Bene, Tommaso! Dura Da Piegare E La Tuo Volontà"
PERFORMER "Pizzetti"
FLAGS DCP
INDEX 01 28:33:02
TRACK 09 AUDIO
TITLE "Signore, Noi Non Siam State Felici"
PERFORMER "Pizzetti"
FLAGS DCP
INDEX 01 32:07:69

CD2

REM GENRE Opera
REM DATE 1958
REM DISCID 840ADF0A
REM COMMENT "ExactAudioCopy v1.0b3"
PERFORMER "Pizzetti"
TITLE "Assassinio Nella Cattedrale, Gavazzeni CD2"
FILE "Pizzetti - Assassinio Nella Cattedrale, Gavazzeni CD2.ape" WAVE
TRACK 01 AUDIO
TITLE "[Intermezzo] Figli Cari Di Dio"
PERFORMER "Pizzetti"
FLAGS DCP
INDEX 01 00:00:00
TRACK 02 AUDIO
TITLE "Neppur Oggi, A Natale, Al Tempo Della Nascita"
PERFORMER "Pizzetti"
FLAGS DCP
INDEX 01 10:11:58
TRACK 03 AUDIO
TITLE "Noi Attendiamo...Noi Tutte Attendiamo"
PERFORMER "Pizzetti"
FLAGS DCP
INDEX 01 14:26:64
TRACK 04 AUDIO
TITLE "Servi Del Re. Per Ordine Del Re"
PERFORMER "Pizzetti"
FLAGS DCP
INDEX 01 17:41:30
TRACK 05 AUDIO
TITLE "Da Poi Che Il Re V'ebbe Restituito Nel Vostro Privilegio"
PERFORMER "Pizzetti"
FLAGS DCP
INDEX 01 21:28:63
TRACK 06 AUDIO
TITLE "Pace, Pace! E Sia Pace Nelle Vostre Visioni"
PERFORMER "Pizzetti"
FLAGS DCP
INDEX 01 26:18:43
TRACK 07 AUDIO
TITLE "Dies Irae, Dies Illa, Solvet Saeclum In Favilla"
PERFORMER "Pizzetti"
FLAGS DCP
INDEX 01 29:48:40
TRACK 08 AUDIO
TITLE "Venite Via, Signore...Presto, Presto"
PERFORMER "Pizzetti"
FLAGS DCP
INDEX 01 33:46:27
TRACK 09 AUDIO
TITLE "Vi Preghiamo, Signori, D'ascoltarci"
PERFORMER "Pizzetti"
FLAGS DCP
INDEX 01 37:57:20
TRACK 10 AUDIO
TITLE "Noi Ti Lodiamo, Dio, Per La Tua Gloria"
PERFORMER "Pizzetti"
FLAGS DCP
INDEX 01 41:08:14



Показать сообщения:    

Текущее время: 06-Дек 15:11

Часовой пояс: UTC + 3


Вы не можете начинать темы
Вы не можете отвечать на сообщения
Вы не можете редактировать свои сообщения
Вы не можете удалять свои сообщения
Вы не можете голосовать в опросах
Вы не можете прикреплять файлы к сообщениям
Вы не можете скачивать файлы