[TR24][SM][OF] Alma Brasileira : Chamber Works by Radames Gnattali - Franz & Debora Halasz - 2014 (Classical)


Статистика раздачи [Обновить пиров]
Размер:  1.27 GB   |    Зарегистрирован:  8 месяцев 16 дней   |    Скачан:  0 раз

Полного источника не было: Никогда

 
   
 
 
 

[Цитировать]

Radamés Gnattali (1906–1988)
Формат записи/Источник записи: [TR24][SM][OF]
Наличие водяных знаков: Нет
Издание: BIS-2086
Год издания/переиздания диска: 2014
Жанр: Classical
Издатель(лейбл): © BIS Records
Продолжительность: 73:03
Наличие сканов в содержимом раздачи: Да
Контейнер: FLAC (*.flac)
Тип рипа: tracks
Разрядность: 24/96
Формат: WAV (flac.ape.wv)
Количество каналов: 2.0
Источник (релизер): http://www.eclassical.com/labels/bis/gnattali-alma-brasileira.html

Треклист

Sonatina No.2 for guitar and piano
01 I. Allegro moderato 04:44
02 II. Saudoso 03:57
03 III. Ritmado 04:59
Works for Solo Guitar
04 Alma brasileira 02:47
05 Dança brasileira 03:38
Petite Suite
06 I. Pastoral 01:46
07 II. Toada 02:42
08 III. Frevo 02:11
09 Toccata em ritmo de samba No 1 03:48
10 Saudade 03:12
11 Toccata em ritmo de samba No 2 03:04
Sonata for Cello and Guitar
12 I. Allegretto comodo 04:06
13 II. Adagio 02:50
14 III. Con spirito 03:33
Works for Solo Piano
15 Moto contínuo I 02:08
16 Negaceando 02:41
17 Canhoto 02:18
18 Vaidosa I 02:27
19 Capoeirando 01:46
20 Trapaceando 02:02
21 Manhosamente 02:51
22 Batuque 03:50
23 Toccata 03:02

Исполнители

Franz Halász guitar
Débora Halász piano
Wen-Sinn Yang cello

Dynamic Range Meter

foobar2000 1.2.6 / Dynamic Range Meter 1.1.1
log date: 2015-05-18 23:22:38
--------------------------------------------------------------------------------
Analyzed: Débora Halász / Gnattali: Alma brasileira (1-9)
Franz Halász, Débora Halász / Gnattali: Alma brasileira (10-12)
Franz Halász, Wen-Sinn Yang / Gnattali: Alma brasileira (13-15)
Franz Halász / Gnattali: Alma brasileira (16-23)
--------------------------------------------------------------------------------
DR Peak RMS Duration Track
--------------------------------------------------------------------------------
DR14 -5.40 dB -22.85 dB 2:12 15-Moto contínuo I
DR13 -1.42 dB -18.72 dB 2:49 16-Negaceando
DR13 -2.17 dB -20.43 dB 2:23 17-Canhoto
DR13 -2.65 dB -22.64 dB 2:33 18-Vaidosa I
DR13 -3.38 dB -20.02 dB 1:52 19-Capoeirando
DR13 -3.63 dB -20.31 dB 2:07 20-Trapaceando
DR13 -1.50 dB -20.04 dB 2:58 21-Manhosamente
DR13 -0.59 dB -18.75 dB 3:58 22-Batuque
DR14 -1.85 dB -20.73 dB 3:34 23-Toccata
DR14 -0.86 dB -22.31 dB 4:50 01-Sonatina No.2 for guitar and piano - I. Allegro moderato
DR14 -3.15 dB -23.33 dB 4:04 02-Sonatina No.2 for guitar and piano - II. Saudoso
DR15 -0.06 dB -19.40 dB 5:13 03-Sonatina No.2 for guitar and piano - III. Ritmado
DR13 -4.10 dB -23.49 dB 4:11 12-Sonata for Cello and Guitar - I. Allegretto comodo
DR11 -8.05 dB -24.14 dB 2:54 13-Sonata for Cello and Guitar - II. Adagio
DR13 -0.87 dB -18.81 dB 3:46 14-Sonata for Cello and Guitar - III. Con spirito
DR14 -11.32 dB -28.91 dB 2:52 04-Alma brasileira
DR16 -3.33 dB -23.40 dB 3:42 05-Dança brasileira
DR15 -8.91 dB -26.44 dB 1:49 06-Petite Suite - I. Pastoral
DR15 -6.35 dB -24.83 dB 2:44 07-Petite Suite - II. Toada
DR16 -5.01 dB -22.68 dB 2:12 08-Petite Suite - III. Frevo
DR15 -6.46 dB -24.30 dB 3:52 09-Toccata em ritmo de samba No 1
DR14 -8.33 dB -25.76 dB 3:15 10-Saudade
DR17 -4.60 dB -26.54 dB 3:14 11-Toccata em ritmo de samba No 2
--------------------------------------------------------------------------------
Number of tracks: 23
Official DR value: DR14
Samplerate: 96000 Hz
Channels: 2
Bits per sample: 24
Bitrate: 2309 kbps
Codec: FLAC
================================================================================
[teatrix.ru].t21304.torrent 
Торрент: Зарегистрирован [ 2016-03-20 11:59 ] · 5973F48C47517F4028D24631E0A86B3D667FF603

Скачать .torrent

Скачать

15 KB

Статус: проверено
Скачан: 0 раз
Размер: 1.27 GB
terms.php



Быстрый ответ

Имя:

      
Для отправки сообщений необходимо включить JavaScript
Показать сообщения:    

Текущее время: 05-Дек 15:34

Часовой пояс: UTC + 3


Вы можете начинать темы
Вы можете отвечать на сообщения
Вы не можете редактировать свои сообщения
Вы не можете удалять свои сообщения
Вы не можете голосовать в опросах
Вы не можете прикреплять файлы к сообщениям
Вы можете скачивать файлы