[TR24][OF] Giacomo Puccini - La Bohème (La Boheme) [1956] (Maria Callas, Giuseppe di Stefano, Rolando Panerai, Anna Moffo, Nicola Zaccaria etc., Coro e Orchestra del Teatro alla Scala di Milano, Antonino Votto) - 2014 (Classical, Opera)


Статистика раздачи [Обновить пиров]
Размер:  1.05 GB   |    Зарегистрирован:  8 месяцев 13 дней   |    Скачан:  2 раза

Полного источника не было: 1 месяц 3 дня

 
   
 
 
 

[Цитировать]

MARIA CALLAS
LA BOHÈME
by Giacomo Puccini
- Год издания: 2014
Жанр: Classical, Opera
Издатель (лейбл): Warner Classics
Продолжительность: 01:45:55
Наличие сканов: Covers, Digital Booklet
-Контейнер: FLAC (*.flac)
Тип рипа: tracks
Разрядность: 24bit / 96kHz
Количество каналов: 2.0
- -Giacomo Puccini (1858–1924)
La Bohème (Opera in four acts)
Libretto: Giuseppe Giacosa & Luigi Illica after Henri Murger: Scènes de la vie de bohème
-Maria Callas, soprano (Mimi)
Giuseppe di Stefano, tenor (Rodolfo)
Rolando Panerai, baritone (Marcello)
Anna Moffo, soprano (Musetta)
Nicola Zaccaria, bass (Colline)
Manuel Spatafora, baritone (Schaunard)
Carlo Badioli, bass (Alcindoro/Benoit)
Coro e Orchestra del Teatro alla Scala di Milano
Chorus master: Norberto Mola
Antonino Votto, conductor
Recorded: 20–25.VIII, 3–4.IX.1956, Teatro alla Scala, Milan
-ТреклистAct 1
01."Questo 'Mar Rosso'' (Marcello, Rodolfo, Colline) (5:38)
02. "Abbasso, abbasso I'autore!" (Marcello, Colline, Rodolfo, Schuanard) (3:47)
03. "Si può?....Chi è là?" (Benoît, Marcello, Schaunard, Colline, Rodolfo) (4:19)
04. "Al Quatiere latin ci attende Momus" (Schaunard, Marcello, Rodolfo, Colline) (1:44)
05. "Non sono in vena" (Rodolfo, Mimì) (3:49)
06. "Che gelida manina!" (Rodolfo) (5:01)
07. "Sì. mi chiamano Mimì" (Mimì, Rodolfo) (4:55)
08. "O soave fanciulla" (Schaunard, Colline, Marcello, Rodolfo, Mimì) (4:59)
Act 2
09. "Aranci, datteri!" (Schaunard, Colline, Rodolfo, Mimì, Marcello, Boys, Chorus) (2:51)
10. "Chi guardi?" (Rodolfo, Colline, Mimì, Schaunard, Marcello, Chorus, Parpignol, Boys) (5:39)
11. "Beviam...Ch'io beva del tossico!" (Mimì, Marcello, Schaunard, Colline, Rodolfo, Chorus) (3:18)
12. "Quando me'n vo soletta" (Musetta, Marcello, Alcindoro, Mimì, Rodolfo, Schaunard, Colline) (4:40)
13. "Chi I'ha richiesto?....Vediam" (Colline, Schaunard, Rodolfo, Boys, Marcello, Chorus, Musetta) (2:31)
Act 3
14. "Ohè, là, le guardie...Aprite!" (Choruus, Customs Official, Musetta, Mimì, Sergeant) (5:11)
15. "Mimì?!...Speravo di trovarvi qui" (Marcello, Mimì) (4:47)
16. "Marcello. Finalmente" (Rodolfo, Marcello, Mimì) (6:19)
17. "Donde lieta uscì al tuo grido d'amore" (Mimì) (3:20)
18. "Dunque è proprio finita?" (Rodolfo, Mimì, Marcello, Musetta) (5:57)
Act 4
19. "In un coupé?....Con pariglia e livree" (Marcello, Rodolfo) (1:18)
20. "O Mimì, tu più non torni" (Rodolfo, Marcello) (3:09)
21. "Che ora sia?" (Rodolfo, Marcello, Schaunard, Colline) (4:08)
22. "C'è Mimì...c'e Mimì che mi seque" (Musetta, Rodolfo, Schaunard, Mimì, Marcello) (5:27)
23. "Vecchia zimarra, senti" (Colline, Schaunard) (1:31)
24. "Schaunard, ognuno per diversa via" (Colline, Schaunard) (1:43)
25. "Sono andati?" (Mimì, Rodolfo) (4:43)
26. "Oh Dio! Mimì!" (Rodolfo, Schaunard, Mimì, Musetta, Marcello, Colline) (5:13)

О релизе


Magnificent
Callas never sang the role of Mimì on stage, but this did not prevent her recorded interpretation from being, as described by Philip Hope-Wallace in Gramophone, ‘brilliantly realised … This Mimì comes alive and later haunts you in the most extraordinary way … one of the most moving I have ever heard.’ Giuseppe di Stefano is an ardent Rodolfo and the young Anna Moffo makes a delectable Musetta.

ОтчётыДинамический диапазон

foobar2000 1.2.2 / Dynamic Range Meter 1.1.1
log date: 2015-04-22 17:59:23
--------------------------------------------------------------------------------
Analyzed: Anna Moffo, Giuseppe di Stefano, Manuel Spatafora, Maria Callas, Rolando Panerai, Orchestra del Teatro alla Scala di Milano, Antonino Votto / Puccini: La Bohème (1956) (1)
Carlo Badioli, Rolando Panerai, Manuel Spatafora, Nicola Zaccaria, Giuseppe di Stefano, Orchestra del Teatro alla Scala di Milano, Antonino Votto / Puccini: La Bohème (1956) (2)
Eraldo Coda, Anna Moffo, Maria Callas, Carlo Forti, Coro del Teatro alla Scala di Milano, Orchestra del Teatro alla Scala di Milano, Antonino Votto / Puccini: La Bohème (1956) (3)
Giuseppe di Stefano, Manuel Spatafora, Maria Callas, Anna Moffo, Rolando Panerai, Nicola Zaccaria, Orchestra del Teatro alla Scala di Milano, Antonino Votto / Puccini: La Bohème (1956) (4)
Giuseppe di Stefano, Maria Callas, Rolando Panerai, Anna Moffo, Orchestra del Teatro alla Scala di Milano, Antonino Votto / Puccini: La Bohème (1956) (5)
Giuseppe di Stefano, Nicola Zaccaria, Maria Callas, Manuel Spatafora, Rolando Panerai, Franco Ricciardi, Coro del Teatro alla Scala di Milano, Orchestra del Teatro alla Scala di Milano, Antonino Votto / Puccini: La Bohème (1956) (6)
Giuseppe di Stefano, Orchestra del Teatro alla Scala di Milano, Antonino Votto / Puccini: La Bohème (1956) (7)
Giuseppe di Stefano, Rolando Panerai, Manuel Spatafora, Nicola Zaccaria, Orchestra del Teatro alla Scala di Milano, Antonino Votto / Puccini: La Bohème (1956) (8)
Giuseppe di Stefano, Rolando Panerai, Maria Callas, Orchestra del Teatro alla Scala di Milano, Antonino Votto / Puccini: La Bohème (1956) (9)
Giuseppe di Stefano, Rolando Panerai, Orchestra del Teatro alla Scala di Milano, Antonino Votto / Puccini: La Bohème (1956) (10)
Manuel Spatafora, Nicola Zaccaria, Giuseppe di Stefano, Maria Callas, Rolando Panerai, Coro del Teatro alla Scala di Milano, Orchestra del Teatro alla Scala di Milano, Antonino Votto / Puccini: La Bohème (1956) (11)
Manuel Spatafora, Nicola Zaccaria, Rolando Panerai, Giuseppe di Stefano, Maria Callas, Orchestra del Teatro alla Scala di Milano, Antonino Votto / Puccini: La Bohème (1956) (12)
Manuel Spatafora, Rolando Panerai, Giuseppe di Stefano, Nicola Zaccaria, Orchestra del Teatro alla Scala di Milano, Antonino Votto / Puccini: La Bohème (1956) (13)
Maria Callas, Giuseppe di Stefano, Orchestra del Teatro alla Scala di Milano, Antonino Votto / Puccini: La Bohème (1956) (14-16)
Maria Callas, Giuseppe di Stefano, Rolando Panerai, Manuel Spatafora, Nicola Zaccaria, Anna Moffo, Carlo Badioli, Franco Ricciardi, Eraldo Coda, Carlo Forti, Orchestra del Teatro alla Scala di Milano, Antonino Votto / Puccini: La Bohème (1956) (17)
Maria Callas, Orchestra del Teatro alla Scala di Milano, Antonino Votto / Puccini: La Bohème (1956) (18)
Maria Callas, Rolando Panerai, Manuel Spatafora, Nicola Zaccaria, Giuseppe di Stefano, Carlo Badioli, Anna Moffo, Coro del Teatro alla Scala di Milano, Orchestra del Teatro alla Scala di Milano, Antonino Votto / Puccini: La Bohème (1956) (19)
Nicola Zaccaria, Manuel Spatafora, Giuseppe di Stefano, Rolando Panerai, Anna Moffo, Coro del Teatro alla Scala di Milano, Orchestra del Teatro alla Scala di Milano, Antonino Votto / Puccini: La Bohème (1956) (20)
Nicola Zaccaria, Manuel Spatafora, Orchestra del Teatro alla Scala di Milano, Antonino Votto / Puccini: La Bohème (1956) (21-22)
Rolando Panerai, Giuseppe di Stefano, Nicola Zaccaria, Orchestra del Teatro alla Scala di Milano, Antonino Votto / Puccini: La Bohème (1956) (23)
Rolando Panerai, Giuseppe di Stefano, Orchestra del Teatro alla Scala di Milano, Antonino Votto / Puccini: La Bohème (1956) (24)
Rolando Panerai, Maria Callas, Orchestra del Teatro alla Scala di Milano, Antonino Votto / Puccini: La Bohème (1956) (25)
Rolando Panerai, Nicola Zaccaria, Giuseppe di Stefano, Manuel Spatafora, Orchestra del Teatro alla Scala di Milano, Antonino Votto / Puccini: La Bohème (1956) (26)
--------------------------------------------------------------------------------
DR Peak RMS Duration Track
--------------------------------------------------------------------------------
DR11 -1.34 dB -19.26 dB 5:27 ?-Act 4: "C'è Mimì...c'e Mimì che mi seque" (Musetta, Rodolfo, Schaunard, Mimì, Marcello)
DR12 -0.86 dB -17.48 dB 4:19 ?-Act 1: "Si può?....Chi è là?" (Benoît, Marcello, Schaunard, Colline, Rodolfo)
DR21 -4.41 dB -30.68 dB 5:11 ?-Act 3: "Ohè, là, le guardie...Aprite!" (Choruus, Customs Official, Musetta, Mimì, Sergeant)
DR12 -1.59 dB -20.32 dB 5:13 ?-Act 4: "Oh Dio! Mimì!" (Rodolfo, Schaunard, Mimì, Musetta, Marcello, Colline)
DR11 -1.37 dB -18.20 dB 5:57 ?-Act 3: "Dunque è proprio finita?" (Rodolfo, Mimì, Marcello, Musetta)
DR10 -1.23 dB -15.80 dB 5:39 ?-Act 2: "Chi guardi?" (Rodolfo, Colline, Mimì, Schaunard, Marcello, Chorus, Parpignol, Boys)
DR10 -1.25 dB -16.46 dB 5:01 ?-Act 1: "Che gelida manina!" (Rodolfo)
DR13 -1.52 dB -18.08 dB 4:08 ?-Act 4: "Che ora sia?" (Rodolfo, Marcello, Schaunard, Colline)
DR11 -1.57 dB -17.60 dB 6:19 ?-Act 3: "Marcello. Finalmente" (Rodolfo, Marcello, Mimì)
DR11 -3.07 dB -19.33 dB 3:09 ?-Act 4: "O Mimì, tu più non torni" (Rodolfo, Marcello)
DR11 -0.34 dB -15.51 dB 2:51 ?-Act 2: "Aranci, datteri!" (Schaunard, Colline, Rodolfo, Mimì, Marcello, Boys, Chorus)
DR11 -1.64 dB -18.61 dB 4:59 ?-Act 1: "O soave fanciulla" (Schaunard, Colline, Marcello, Rodolfo, Mimì)
DR14 -2.30 dB -20.84 dB 1:44 ?-Act 1: "Al Quatiere latin ci attende Momus" (Schaunard, Marcello, Rodolfo, Colline)
DR13 -2.82 dB -22.74 dB 3:49 ?-Act 1: "Non sono in vena" (Rodolfo, Mimì)
DR11 -2.01 dB -19.40 dB 4:55 ?-Act 1: "Sì. mi chiamano Mimì" (Mimì, Rodolfo)
DR11 -3.47 dB -21.26 dB 4:43 ?-Act 4: "Sono andati?" (Mimì, Rodolfo)
DR10 -2.59 dB -16.67 dB 4:40 ?-Act 2: "Quando me'n vo soletta" (Musetta, Marcello, Alcindoro, Mimì, Rodolfo, Schaunard, Colline)
DR10 -2.61 dB -18.97 dB 3:20 ?-Act 3: "Donde lieta uscì al tuo grido d'amore" (Mimì)
DR11 -1.22 dB -17.42 dB 3:18 ?-Act 2: "Beviam...Ch'io beva del tossico!" (Mimì, Marcello, Schaunard, Colline, Rodolfo, Chorus)
DR11 -1.85 dB -16.32 dB 2:31 ?-Act 2: "Chi I'ha richiesto?....Vediam" (Colline, Schaunard, Rodolfo, Boys, Marcello, Chorus, Musetta)
DR11 -12.16 dB -26.66 dB 1:31 ?-Act 4: "Vecchia zimarra, senti" (Colline, Schaunard)
DR12 -6.55 dB -23.30 dB 1:43 ?-Act 4: "Schaunard, ognuno per diversa via" (Colline, Schaunard)
DR12 -1.39 dB -18.37 dB 5:38 ?-Act 1: "Questo 'Mar Rosso'' (Marcello, Rodolfo, Colline)
DR12 -3.00 dB -19.88 dB 1:18 ?-Act 4: "In un coupé?....Con pariglia e livree" (Marcello, Rodolfo)
DR10 -2.25 dB -18.02 dB 4:47 ?-Act 3: "Mimì?!...Speravo di trovarvi qui" (Marcello, Mimì)
DR12 -2.52 dB -18.30 dB 3:47 ?-Act 1: "Abbasso, abbasso I'autore!" (Marcello, Colline, Rodolfo, Schuanard)
--------------------------------------------------------------------------------
Number of tracks: 26
Official DR value: DR12
Samplerate: 96000 Hz
Channels: 2
Bits per sample: 24
Bitrate: 1435 kbps
Codec: FLAC
================================================================================

Скриншот спектра частот

Доп. информация

При скачивании, если необходимо, переименуйте папку, в которой будет находиться альбомБольшая просьба к скачавшим поддерживать раздачу! Помогайте другим, ведь вам тоже может понадобиться помощь!Не забываем говорить "Спасибо"!Комментарии приветствуются!
Maria Callas Hi-Res
[teatrix.ru].t21305.torrent 
Торрент: Зарегистрирован [ 2016-03-20 12:01 ] · 89DDA61C8309CEEBDF065B74B15E5B2361847CFA

Скачать .torrent

Скачать

13 KB

Статус: проверено
Скачан: 2 раз
Размер: 1.05 GB
terms.php



Быстрый ответ

Имя:

      
Для отправки сообщений необходимо включить JavaScript
Показать сообщения:    

Текущее время: 03-Дек 03:17

Часовой пояс: UTC + 3


Вы можете начинать темы
Вы можете отвечать на сообщения
Вы не можете редактировать свои сообщения
Вы не можете удалять свои сообщения
Вы не можете голосовать в опросах
Вы не можете прикреплять файлы к сообщениям
Вы можете скачивать файлы