(Classical, period) The Real Chopin – The complete works [21 CDs] (Koczalski, Fou Ts'ong, Colleen Lee, Goerner, Dang Thai Son, Шебанова, Switala, Olejniczak, Kenner, Yoffe, Broja, Демиденко, Poblocka, Drewnowski) - 2010, FLAC (image+.cue) lossless


Статистика раздачи [Обновить пиров]
Размер:  4.82 GB   |    Зарегистрирован:  8 месяцев 21 день   |    Скачан:  1 раз

Полного источника не было: 1 месяц 28 дней

 
   
 
 
 

[Цитировать]

The Real Chopin: The complete works on period instruments [21 CDs]
Concertos ▪ Sonatas ▪ Rondos ▪ Variations ▪ Ballades ▪ Scherzos ▪ Impromptus ▪ Preludes ▪ Etudes ▪ Polonaises ▪ Waltzes ▪ Nocturnes ▪ Mazurkas ▪ Ecossaises ▪ Fantasia ▪ Barcarolle ▪ Berceuse ▪ Bolero ▪ Tarantella ▪ Contredanse ▪ Galop ▪ Fuga ▪ Songs ▪ etc.- Жанр: Classical, period
Страна-производитель диска: Польша?
Год издания диска: 2010 (отдельными дисками 2005 — 2010)
Издатель (лейбл): NIFC (Narodowy Instytut Fryderyka Chopina)
Номер по каталогу: NIFCCD 000 — 020
Аудиокодек: FLAC
Тип рипа: image+.cue (диски II — XXI); tracks+.cue (диск I)
Битрейт аудио: lossless
Источник: odeonmusic (диски II — XXI)
Наличие сканов в содержимом раздачи: да (отдельные буклеты к дискам II — XXI + весь буклет к полному изданию)-Исполнители:
Raul Koczalski; Fou Ts’ong; Colleen Lee Ka-ling; Nelson Goerner; Đặng Thái Sơn / Dang Thai Son; Татьяна Шебанова / Tatiana Shebanova; Wojciech Świtała; Janusz Olejniczak; Kevin Kenner; Dina Yoffe / Дина Иоффе; Jan Krzysztof Broja; Николай Демиденко / Nikolai Demidenko; Ewa Pobłocka; Jarosław Drzewiecki; Stanisław Drzewiecki; Marek Drewnowski (фортепиано).
Aleksandra Kurzak (сопрано).
Mariusz Kwiecień (баритон).
Jakub Jakowicz (скрипка).
Andrzej Bauer (виолончель).
Orkiestra XVIII Wieku (Orchestra of the 18th Century).
Дирижер Frans Brüggen.-Фортепиано (диски II — XXI):
Pleyel, 1848: III (Colleen Lee); IV, XVII (Goerner); VII (Świtała); XI (Kenner); XII (Olejniczak); XIII (Yoffe); XV (Демиденко); XVI (Pobłocka); XVIII (J. Drzewiecki); XX (Drewnowski).
Érard, 1849: II (Fou Ts’ong); V, XXI (Đặng Thái Sơn); VI, VIII, XVIII, XIX (Шебанова); VII (Świtała); IX, XII (Olejniczak); X (Goerner); XIV (Broja); XX (Drewnowski).
Курсивом выделены номера дисков с записями на обоих инструментах.-

Дата и место записи

Дата и место записи:
Варшава.
Диск I: 21 февраля 1948 г., концертная запись, Бельведерский дворец (архивная запись Польского радио).
Диск II: 14 — 17 марта 2005 г.
Диск III: 26 — 27 ноября 2005 г.
Диск IV: 1 — 4 и 14 декабря 2005 г.
Диск V: 8 сентября 2005 г., концертная запись, Концертный зал Варшавской филармонии (1 — 3); 31 августа 2006 г., концертная запись, Большой театр (4 — 6).
Диск VI: 19 — 20 мая 2007 г.
Диск VII: 11 — 13 ноября 2006 г. и 4 мая 2007 г.
Диск VIII: 29 сентября 2007 г.
Диск IX: 10 — 11 сентября 2007 г.
Диск X: 30 августа 2006 г., концертная запись, Большой театр (1); 11 ноября 2007 г. (2 — 13).
Диск XI: 17 — 19 марта 2008 г.
Диск XII: 7 — 10 февраля 2008 г.
Диск XIII: 20 — 22 августа 2008 г.
Диск XIV: 6 — 8 июля, 13 — 14 сентября и 22 — 23 октября 2009 г.
Диск XV: 15 — 17 декабря 2008 г.
Диск XVI: 7 — 10 февраля 2008 г. и 12 — 13 августа 2009 г.
Диск XVII: 24 — 26 марта и 23 — 27 июня 2009 г.
Диск XVIII: 15 — 16 апреля 2009 г.
Диск XIX: 28 — 29 октября и 11 декабря 2009 г., 19 января 2010 г.
Диск XX: 16 — 17 декабря 2005 г., 12 — 14 марта и 12 декабря 2009 г.
Диск XXI: 24 — 25 марта 2009 г.

Краткий треклист

Нумерация полонезов, вальсов (до номера 16 включительно) и мазурок дана по изданию под редакцией Падеревского. Распределение сочинений по опусам и расположение внутри них — по Национальному изданию.-Диск I — NIFCCD 000
Баллада № 1 (op. 23).
Фантазия-экспромт (op. 66).
Прелюдия № 20 (op. 28 № 20).
Вальс № 1 (op. 18).
Ноктюрн № 8 (op. 27 № 2).
Мазурка № 5 (op. 7 № 1).
Колыбельная (op. 57).
Диск II — NIFCCD 001
Мазурки № 6, 11, 12, 14, 16 — 19, 22, 25, 27, 30 — 32, 35, 36, 40, 51 (op. 7 № 2; op. 17 № 2 и 3; op. 24 № 1, 3 и 4; op. 30 № 1 и 2; op. 33 № 1 и 4; op. 41 № 1; op. 50 № 1 — 3; op. 56 № 3; op. 59 № 1; op. 63 № 2; op. 68 № 4).
Диск III — NIFCCD 002
Соната № 3 (op. 58).
Прелюдии № 13 — 18 (op. 28 № 13 — 18).
Полонез-фантазия [№ 7] (op. 61).
Мазурки № 22 — 25 (op. 33 № 1 — 4).
Фантазия f-moll (op. 49).
Диск IV — NIFCCD 003
Четыре баллады (op. 23; op. 38; op. 47; op. 52).
Ноктюрны № 7, 8 и 14 (op. 27 № 1 и 2; op. 48 № 2).
Диск V — NIFCCD 004
Два концерта для фортепиано с оркестром (op. 11; op. 21).
Диск VI — NIFCCD 005
Вальсы № 1 — 14 (op. 18; op. 34 № 1 — 3; op. 42; op. 64 № 1 — 3; op. 69 № 1 и 2; op. 80 № 1 — 3; B. 56).
Три экосеза (op. 72 № 3 — 5).
Баркарола, Колыбельная (op. 60; op. 57).
Диск VII — NIFCCD 006
Большой блестящий полонез с Andante spianato (op. 22), версия для одного фортепиано.
Прелюдии № 1 — 24 (op. 28).
Диск VIII — NIFCCD 007
Этюды № 1 — 24 (op. 10; op. 25).
Диск IX — NIFCCD 008
Соната № 2 (op. 35).
Скерцо № 2 (op. 31).
Вальсы № 7 и 15 (op. 64 № 2; B. 44).
Ноктюрны № 19 и 20 (op. 72 № 21; B. 49).
Мазурки № 13 — 15, 21 и 27 (op. 17 № 4; op. 24 № 1 и 2; op. 30 № 4; op. 41 № 1).
Диск X — NIFCCD 009
Сочинения для фортепиано с оркестром
Фантазия A-dur (op. 13).
Вариации на тему «Là ci darem la mano» (op. 2).
Рондо-краковяк (op. 14).
Большой блестящий полонез с Andante spianato (op. 22).
(Автор неизвестен.)
«Мазурка Домбровского» (гимн Польши).
Диск XI — NIFCCD 010
Четыре экспромта (op. 29; op. 36; op. 51; op. 66).
Скерцо № 3 (op. 39).
Прелюдии № 25 и 26 (op. 45 и B. 86).
Полонез № 4 (op. 40 № 2).
Ноктюрны № 9 и 10 (op. 32 № 1 и 2).
Мазурки № 36 — 38 (op. 59 № 1 — 3).
Диск XII — NIFCCD 011
Полонезы № 3, 5 и 6 (op. 40 № 1; opp. 44, 53).
Вальс № 3 (op. 34 № 2).
Ноктюрны № 13 и 17 (op. 48 № 1; op. 62 № 1).
Мазурки № 12, 19, 49 — 51 (op. 17 № 3; op. 30 № 2; op. 68 № 2 — 4).
Диск XIII — NIFCCD 012
Скерцо № 1 и 4 (opp. 20 и 54).
Полонез № 2 (op. 26 № 2).
Ноктюрны № 4 — 6, 15 и 18 (op. 15 № 1 — 3; op. 55 № 1; op. 62 № 2).
Мазурки № 5, 13, 44 — 47 (op. 7 № 1; op. 17 № 4; op. 67 № 1 — 4).
Диск XIV — NIFCCD 013
Камерно-инструментальные ансамбли
Виолончельная соната (op. 65).
Интродукция и полонез C-dur (op. 3).
Концертный дуэт на темы Мейербера (B. 70).
Фортепианное трио (op. 8).
Диск XV — NIFCCD 014
Вариации на тему «Là ci darem la mano» (op. 2), версия для одного фортепиано.
Концертное аллегро (op. 46).
Рондо c-moll и Es-dur (op. 1; op. 16).
Полонез № 8 (op. 71 № 1).
Ноктюрн № 7 (op. 27 № 1).
Болеро, Тарантелла, Колыбельная (op. 19; op. 43; op. 57).
Диск XVI — NIFCCD 015
Соната № 1 (op. 4).
Этюды № 25 — 27 (B. 130).
Мазурки № 1 — 10, 26 — 29, 43, 52, 53 и 56 (op. 6 № 1 — 5; op. 7 № 1 — 4; op. 17 № 1; op. 41 № 1 — 4; B. 134; B. 16 № 1 и 2; B. 73).
Контрданс, Cantabile (B. 17; B. 84).
Диск XVII — NIFCCD 016
Полное собрание песен (op. 74 № 1 — 17; B. 51; B. 132).
Диск XVIII — NIFCCD 017
Рондо для двух фортепиано (op. 73).
Вариации в четыре руки (B. 12a).
Рондо в стиле мазурки (op. 5).
Блестящие вариации (op. 12).
[Варианты] на тему Паганини (B. 37).
Полонез № 16 (B. 36).
Вальс Es-dur (B. 46).
Мазурки № 55 — 58 (B. 71; B. 73; B. 82; B. 85).
Похоронный марш (op. 72 № 2).
Moderato, Allegretto, Largo (B. 151; WN 36; B. 109a).
«Весна», переложение для фортепиано (B. 117).
Фуга (B. 144).
Вариация из «Гексамерона» (B. 113).
Диск XIX — NIFCCD 018
Рондо для двух фортепиано (op. 73), версия для одного фортепиано.
Вариации на тему немецкой народной песни «Der Schweizerbub» (B. 14).
Полонезы № 1, 10, 14 и 15 (op. 26 № 1; op. 71 № 3; B. 6; B. 13).
Ноктюрн № 6 (op. 15 № 3).
Мазурки № 20, 33, 34, 39 — 42 и 48 (op. 30 № 3; op. 56 № 1 и 2; op. 63 № 1 — 3; B. 140; op. 68 № 1).
Галоп «Маркиз» (WN 59).
Диск XX — NIFCCD 019
Полонезы № 9, 11 — 13 (op. 71 № 2; B. 1; B. 3; B. 5).
Вальсы № 1 — 16 (op. 18; op. 34 № 1 — 3; op. 42; op. 64 № 1 — 3; op. 69 № 1 и 2; op. 80 № 1 — 3; B. 56; B. 44; B. 21).
Вальсы Es-dur и a-moll (B. 133; B. 150).
Диск XXI — NIFCCD 020
Ноктюрны № 1 — 3, 5, 7, 9 — 12, 15, 16, 19 — 21 (op. 9 № 1 — 3; op. 15 № 2; op. 27 № 1; op. 32 № 1 и 2; op. 37 № 1 и 2; op. 55 № 1 и 2; op. 72 № 1; B. 49; B. 108).

Подробный треклист

Нумерация полонезов, вальсов (до номера 16 включительно) и мазурок дана по изданию под редакцией Падеревского. Распределение сочинений по опусам и расположение внутри них — по Национальному изданию. Названия песен даны по книге («Шопен») И. Ф. Бэлзы (кроме «Нет того, что нужно» и «Где кому любо»: первую Бэлза не переводит, для второй дает дословно «Где любит»).

[NIFCCD 000] Диск I — Архивная запись концерта 21 февраля 1948 года (Raul Koczalski).

Диск I — NIFCCD 000.
Архивная запись концерта в Бельведерском дворце 21 февраля 1948 года, приуроченного к 138-летию со дня рождения Шопена: Рауль Кочальский играет на фортепиано Шопена.-Двадцать четыре прелюдии, op. 28 (1831? — 1839, цикл 1838 — 1839, опубл. 1839).
01. № 20 c-moll. Largo [01:17].
Два ноктюрна, op. 27 (1833 — 1836, опубл. 1836).
02. № 2 (8) Des-dur. Lento sostenuto [05:12].
Четыре мазурки, op. 7 (до 1832, опубл. 1832).
03. № 1 (5) B-dur. Vivace [01:53].
04. Колыбельная Des-dur, op. 57 (1844, опубл. 1845). Andante [04:07].
05. [Фантазия-]экспромт cis-moll, op. 66 posth., WN 46 (ок. 1834; опубл. 1855, версия Фонтаны). Allegro agitato. — Largo. — Moderato cantabile. — Presto [04:41].
06. [Большой блестящий] вальс (№ 1) Es-dur, op. 18 (1831?/1833, опубл. 1834). Vivo [04:00].
07. Баллада № 1 g-moll, op. 23 (1831? — 1834/1835, опубл 1836). Largo. — Moderato. — [Кода.] Presto con fuoco [08:44].-08. Комментарий Тадеуша Бохеньского (время, место записи и проч.).-Исполнитель:
Raul Koczalski (фортепиано Шопена, Pleyel, 1847).

[NIFCCD 001] Диск II — Мазурки (Fou Ts’ong).

Диск II — NIFCCD 001.
Мазурки для фортепиано.-Четыре мазурки, op. 7 (до 1832, опубл. 1832).
17. № 2 (6) a-moll. Vivo, ma non troppo [03:14].
Четыре мазурки, op. 17 (до 1833, опубл. 1834).
14. № 2 (11) e-moll. Lento, ma non troppo [02:02].
06. № 3 (12) As-dur. Legato assai [04:20].
Четыре мазурки, op. 24 (1833/1834 — 1835?, опубл. 1836).
10. № 1 (14) g-moll. Lento [02:59].
03. № 3 (16) As-dur. Moderato con anima [02:06].
07. № 4 (17) b-moll. Moderato [04:52].
Четыре мазурки, op. 30 (1835 — 1837, опубл. 1837).
08. № 1 (18) c-moll. Allegretto non tanto [01:34].
13. № 2 (19) h-moll. Allegretto [01:32].
Четыре мазурки, op. 33 (1836/1837 — 1838, опубл. 1838).
02. № 1 (22) gis-moll. Lento [вместо испорченного при издании Mesto] [01:14].
12. № 4 (25) h-moll. Mesto [вероятно, по ошибке] [05:19].
Четыре мазурки, op. 41 (опубл. 1840).
15. № 1 (27) [№ 2 в немецком издании] e-moll (1838). Andantino. [Песня «Tam na błoniu błyszczy kwiecie» Венцеля Галленберга на слова Францишка Ковальского] [02:34].
Три мазурки, op. 50 (1841? — 1842, опубл. 1842).
11. № 1 (30) G-dur. Vivace [02:32].
09. № 2 (31) As-dur. Allegretto [03:05].
01. № 3 (32) cis-moll. Moderato [05:33].
Три мазурки, op. 56 (1843, опубл. 1844).
04. № 3 (35) c-moll. Moderato [06:36].
Три мазурки, op. 59 (1845, опубл. 1845).
16. № 1 (36) a-moll. Moderato [03:59].
Три мазурки, op. 63 (1846, опубл. 1847).
05. № 2 (40) f-moll. Lento [01:46].
Четыре мазурки, op. 68 posth. (опубл. 1855).
18. № 4 (51) f-moll, WN 65 (1849). Andantino [03:33].-Исполнитель:
Fou Ts'ong (фортепиано, Érard, 1849).

[NIFCCD 002] Диск III — Третья соната, прелюдии, Полонез-фантазия, мазурки и Фантазия (Colleen Lee Ka-ling).

Диск III — NIFCCD 002.
Третья соната, прелюдии, Полонез-фантазия, мазурки и Фантазия для фортепиано.-Соната № 3 h-moll, op. 58 (1844, опубл. 1845).
13. I. Allegro maestoso [09:18].
14. II. Scherzo. Molto vivace [02:53].
15. III. Largo [09:54].
16. IV. Finale. Presto non tanto [05:20].
Двадцать четыре прелюдии, op. 28 (1831? — 1839, цикл 1838 — 1839, опубл. 1839).
07. № 13 Fis-dur. Lento. — Più lento. — Tempo I [03:23].
08. № 14 es-moll. Allegro [00:31].
09. № 15 Des-dur. Sostenuto [05:28].
10. № 16 b-moll. [Без указания темпа.] — Presto con fuoco [01:09].
11. № 17 As-dur. Allegretto [03:08].
12. № 18 f-moll. Molto allegro [01:04].
Полонез-фантазия [полонез № 7] As-dur, op. 61 (1845 — 1846, опубл. 1846).
06. Allegro maestoso. — Poco più lento. — Tempo I [13:24].
Четыре мазурки, op. 33 (1836/1837 — 1838, опубл. 1838).
02. № 1 (22) gis-moll. Lento [вместо испорченного при издании Mesto] [01:42].
03. № 2 (24) [№ 3 в немецком издании] C-dur. Semplice [01:42].
04. № 3 (23) [№ 2 в немецком издании] D-dur. Vivace [02:14].
05. № 4 (25) h-moll. Mesto [вероятно, по ошибке] [04:50].
Фантазия f-moll, op. 49 (1840? — 1841, опубл. 1841).
01. Marcia. Grave. — [Doppio movimento.] — Lento sostenuto. — Tempo I. — Adagio sostenuto. — Assai allegro [13:14].-Исполнитель:
Colleen Lee Ka-ling (фортепиано, Pleyel, 1848).

[NIFCCD 003] Диск IV — Четыре баллады и три ноктюрна (Nelson Goerner).

Диск IV — NIFCCD 003.
Четыре баллады и три ноктюрна для фортепиано.-Четыре баллады.
01. Баллада № 1 g-moll, op. 23 (1831? — 1834/1835, опубл 1836). Largo. — Moderato. — [Кода.] Presto con fuoco [08:44].
03. Баллада № 2 F-dur, op. 38 (1836 — 1839, опубл. 1840). Andantino. — Presto con fuoco. — Tempo I. — Presto con fuoco. — Agitato. — Tempo I [06:56].
05. Баллада № 3 As-dur, op. 47 (1841, оп. 1841). Allegretto [07:10].
07. Баллада № 4 f-moll, op. 52 (1842 — 1843, опубл. 1843). Andante con moto [10:46].
Два ноктюрна, op. 27 (1833 — 1836, опубл. 1836).
04. № 1 (7) cis-moll. Larghetto. — Più mosso. — Tempo I [05:31].
06. № 2 (8) Des-dur. Lento sostenuto [05:54].
Два ноктюрна, op. 48 (1841, опубл. 1841).
02. № 2 (14) fis-moll. Andantino. — Più lento. — Tempo I [06:26].-Исполнитель:
Nelson Goerner (фортепиано, Pleyel, 1848).

[NIFCCD 004] Диск V — Концерты для фортепиано с оркестром (Đặng Thái Sơn / Dang Thai Son; Frans Brüggen).

Диск V — NIFCCD 004.
Концерты для фортепиано с оркестром.-Концерт № 1 e-moll, op. 11 (1830, опубл. 1833).
01. I. Allegro maestoso [20:28].
02. II. Романс. Larghetto [10:01].
03. III. Rondo. Vivace [09:37].
Концерт № 2 f-moll, op. 21 (1829 — 1830, опубл. 1836).
04. I. Maestoso [14:30].
05. II. Larghetto [09:00].
06. III. Allegro vivace [08:05].-Исполнители:
Đặng Thái Sơn / Dang Thai Son (фортепиано, Érard, 1849).
Orkiestra XVIII Wieku (Orchestra of the 18th Century).
Дирижер Frans Brüggen.

[NIFCCD 005] Диск VI — Четырнадцать вальсов, баркарола, колыбельная, экосезы (Татьяна Шебанова / Tatiana Shebanova).

Диск VI — NIFCCD 005.
Четырнадцать вальсов, баркарола, колыбельная, экосезы для фортепиано.-01. [Большой блестящий] вальс (№ 1) Es-dur, op. 18 (1831?/1833, опубл. 1834). Vivo [05:43].
Три [блестящих] вальса, op. 34 (опубл. 1838).
02. [Большой блестящий] вальс № 1 (2) As-dur (1-я ред. 1835, 2-я ред. до 1838). Vivace [06:06].
03. [Большой блестящий] вальс № 2 (3) a-moll (1831?). Lento [06:39].
04. [Большой блестящий] вальс № 3 (4) F-dur (до 1838). Vivace [02:25].
05. Вальс (№ 5) As-dur, op. 42 (1839? — 1840, опубл. 1840). [Без указания темпа] [04:08].
Три вальса, op. 64 (1840? / 1846 — 1847, опубл. 1847).
06. № 1 (6) Des-dur. Molto vivace [01:54].
07. № 2 (7) cis-moll. Tempo giusto. — Più lento. — Più mosso. — Tempo I [04:21].
08. № 3 (8) As-dur. Moderato [03:35].
Два вальса, op. 69 posth. (опубл. 1855).
09. № 1 (9) As-dur, WN 47 (1835?, версия Фонтаны). Lento [04:25].
10. № 2 (10) h-moll, WN 19 (1829, версия Фонтаны). Moderato [04:09].
Три вальса, op. 70 posth. (опубл. 1855).
11. № 1 (11) Ges-dur, WN 42 (1832). Molto vivace. — Meno mosso. — Tempo I [02:20].
12. № 2 (12) f-moll, WN 55 (1841, версия Фонтаны). Tempo giusto [03:09].
13. № 3 (13) Des-dur, WN 20 (1829). Moderato [03:57].
14. Вальс № 14 e-moll, B. 56, WN 29 (ок. 1830, опубл. 1868). Vivace [03:09].-Ноктюрн, похоронный марш и три экосеза, op. 72 posth. (опубл. 1855).
15. № 3. Экосез № 1 D-dur, WN 13 c (1826/1830?). Vivace [01:00].
16. № 4. Экосез № 2 G-dur, WN 13 a (1826/1830?). [Vivace] [00:36].
17. № 5. Экосез № 3 Des-dur, WN 13 b (1826/1830?). [Vivace] [00:49]
18. Баркарола Fis-dur, op. 60 (1845 — 1846, опубл. 1846). Allegretto [09:34].
19. Колыбельная Des-dur, op. 57 (1844, опубл. 1845). Andante [05:25].-Исполнитель:
Татьяна Шебанова / Tatiana Shebanova (фортепиано, Érard, 1849).

[NIFCCD 006] Диск VII — Большой блестящий полонез с Andante spianato; Двадцать четыре прелюдии (Wojciech Świtała).

Диск VII — NIFCCD 006.
Большой блестящий полонез с Andante spianato; Двадцать четыре прелюдии для фортепиано.-[Большой блестящий] полонез[, предваренный Andante spianato,] Es-dur для фортепиано с оркестром, op. 22, оригинальная версия для одного фортепиано (1830 — 1835/1836, анданте ок. 1834, опубл. 1836).
25. Andante spianato. — [05:03].
26. Полонез. Allegro molto. — Meno mosso [09:39].
Двадцать четыре прелюдии, op. 28 (1831? — 1839, цикл 1838 — 1839, опубл. 1839).
01. № 1 C-dur. Agitato [00:45].
02. № 2 a-moll. Lento [02:37].
03. № 3 G-dur. Vivace [01:02].
04. № 4 e-moll. Largo [02:05].
05. № 5 D-dur. Molto allegro [00:37].
06. № 6 h-moll. Lento assai [01:52].
07. № 7 A-dur. Andantino [00:51].
08. № 8 fis-moll. Molto agitato [01:51].
09. № 9 E-dur. Largo [01:50].
10. № 10 cis-moll. Molto allegro [00:35].
11. № 11 H-dur. Vivace [00:44].
12. № 12 gis-moll. Presto [01:13].
13. № 13 Fis-dur. Lento. — Più lento. — Tempo I [03:16].
14. № 14 es-moll. Allegro [00:29].
15. № 15 Des-dur. Sostenuto [05:53].
16. № 16 b-moll. [Без указания темпа.] — Presto con fuoco [01:06].
17. № 17 As-dur. Allegretto [03:32].
18. № 18 f-moll. Molto allegro [01:03].
19. № 19 Es-dur. Vivace [01:29].
20. № 20 c-moll. Largo [01:58].
21. № 21 B-dur. Cantabile [02:13].
22. № 22 g-moll. Molto agitato [00:42].
23. № 23 F-dur. Moderato [01:06].
24. № 24 d-moll. Allegro appassionato [02:33].-Исполнитель:
Wojciech Świtała (фортепиано: Pleyel, 1848; Érard, 1849 — треки 25 и 26).

[NIFCCD 007] Диск VIII — Двадцать четыре этюда (Татьяна Шебанова / Tatiana Shebanova).

Диск VIII — NIFCCD 007.
Двадцать четыре этюда для фортепиано.-[Двенадцать] этюдов, op. 10 (1829? — 1832, опубл. 1833).
01. № 1 (1) C-dur. Allegro [01:57].
02. № 2 (2) a-moll. Allegro [01:27].
03. № 3 (3) E-dur. Lento ma non troppo. — Poco più animato. — [Tempo I.] — [04:46].
04. № 4 (4) cis-moll. Presto [01:59].
05. № 5 (5) Ges-dur. Vivace [01:41].
06. № 6 (6) es-moll. Andante [04:30].
07. № 7 (7) C-dur. Vivace [01:31].
08. № 8 (8) F-dur. Allegro [02:14].
09. № 9 (9) f-moll. Allegro, molto agitato [02:13].
10. № 10 (10) As-dur. Vivace assai [02:23].
11. № 11 (11) Es-dur. Allegretto [02:29].
12. № 12 (12) c-moll. Allegro con fuoco [02:32].
[Двенадцать] этюдов, op. 25 (до 1837, опубл. 1837).
13. № 1 (13) As-dur. Allegro sostenuto [02:40].
14. № 2 (14) f-moll. Presto [01:32].
15. № 3 (15) F-dur. Allegro [01:41].
16. № 4 (16) a-moll. Agitato [01:32].
17. № 5 (17) e-moll. Vivace. — Più lento. — Tempo I [03:41].
18. № 6 (18) gis-moll. Allegro [02:05].
19. № 7 (19) cis-moll. Lento [06:18].
20. № 8 (20) Des-dur. Vivace [01:16].
21. № 9 (21) Ges-dur. Allegro assai [00:59].
22. № 10 (22) h-moll. Allegro con fuoco. — Lento. — Tempo I [05:01].
23. № 11 (23) a-moll. Lento. — Allegro con brio [03:39].
24. № 12 (24) c-moll. Allegro molto con fuoco [02:46].-Исполнитель:
Татьяна Шебанова / Tatiana Shebanova (фортепиано, Érard, 1849).

[NIFCCD 008] Диск IX — Вторая соната, скерцо, вальсы, ноктюрны и мазурки (Janusz Olejniczak).

Диск IX — NIFCCD 008.
Вторая соната, скерцо, вальсы, ноктюрны и мазурки для фортепиано.-Соната № 2 b-moll, op. 35 (1839, марш 1837, опубл. 1840).
06. I. Grave. — Doppio movimento [07:38].
07. II. Scherzo. — Più lento. — Tempo I [07:13].
08. III. Marche funèbre. Lento [09:47].
09. IV. Finale. Presto [01:27].
11. Скерцо № 2 b-moll, op. 31 (1836? — 1837, опубл. 1837). Presto [10:44].
Три вальса, op. 64 (1840? / 1846 — 1847, опубл. 1847).
13. № 2 (7) cis-moll. Tempo giusto. — Più lento. — Più mosso. — Tempo I [03:45].
12. Вальс № 15 E-dur, B. 44, WN 18 (1829; опубл. 1861?/1871). Tempo di valse [02:42].
Ноктюрн, похоронный марш и три экосеза, op. 72 posth. (опубл. 1855).
10. № 1. Ноктюрн (№ 19) e-moll, WN 23 (1827?, до 1830? / 1840-е?). Andante [04:41].
14. [Ноктюрн] № 20 cis-moll, B. 49, WN 37 (1830; опубл. 1875). Lento con gran espressione [04:14].
Четыре мазурки, op. 17 (до 1833, опубл. 1834).
01. № 4 (13) a-moll (1-я верс. 1824?; 2-я верс. нач. 1830-х?). Lento, ma non troppo [04:23].
Четыре мазурки, op. 24 (1833/1834 — 1835?, опубл. 1836).
03. № 1 (14) g-moll. Lento [02:54].
04. № 2 (15) C-dur. Allegro non troppo [02:21].
Четыре мазурки, op. 30 (1835 — 1837, опубл. 1837).
02. № 4 (21) cis-moll. Allegretto [04:12].
Четыре мазурки, op. 41 (опубл. 1840).
05. № 1 (27) [№ 2 в немецком издании] e-moll (1838). Andantino. [Песня «Tam na błoniu błyszczy kwiecie» Венцеля Галленберга на слова Францишка Ковальского] [02:22].-Исполнитель:
Janusz Olejniczak (фортепиано, Érard, 1849).

[NIFCCD 009] Диск X — Сочинения для фортепиано с оркестром + «Мазурка Домбровского» (Nelson Goerner, Frans Brüggen).

Диск X — NIFCCD 009.
Сочинения для фортепиано с оркестром.-[Большая] фантазия A-dur на польские темы, op. 13 (1828/1829, опубл. 1834).
01. Вступление. Largo non troppo. — [14:01].
(02) — [I.] «Уж месяц взошел» (Już miesiąc zaszedł). Andantino. —
(03) — [II.] Тема Кароля Курпиньского. [Элегия на смерть Тадеуша Костюшки.] Allegretto. — Presto con fuoco. — Lento quasi adagio. — Molto più mosso. —
(04) — [III.] Куявяк. [«Ехал Ясе из Торуня» (Jedzie Jasio od Torunia).] Vivace. —
(05) — [Кода.] Brillante.
Вариации B-dur на тему «Là ci darem la mano» из «Дон Жуана» Моцарта, op. 2 (1827 — 1828, опубл. 1830).
02. Вступление. Largo. — Poco più mosso. — [04:43].
03. — Тема. Allegretto. — [01:25].
04. — Вариация I. Brillante. — [01:02].
05. — Вариация II. Veloce, ma accuratamente. — [00:58].
06. — Вариация III. Sempre sostenuto. — [01:25].
07. — Вариация IV. — [01:10].
08. — Вариация V. Adagio. — [03:23].
09. — Alla polacca [03:29].
Краковяк, большое концертное рондо (т. наз. Рондо-краковяк — Rondo à la krakowiak) F-dur, op. 14 (1828, опубл. 1834).
10. Вступление. Andantino quasi allegretto. — Allegro molto. — Рондо. Allegro non troppo [14:25].
[Большой блестящий] полонез[, предваренный Andante spianato,] Es-dur, op. 22 (1830 — 1835/1836, анданте ок. 1834, опубл. 1836).
11. Andante spianato. — [04:55].
12. Полонез. Allegro molto. — Meno mosso [09:00].-13. «Мазурка Домбровского» (Mazurek Dąbrowskiego, или Pieśń Legionów Polskich we Włoszech; музыка неизвестного автора на слова Юзефа Руфина Выбицкого, слова ок. 1797) [00:47].-Исполнители:
Nelson Goerner (фортепиано, Érard, 1849).
Orkiestra XVIII Wieku (Orchestra of the 18th Century).
Дирижер Frans Brüggen.

[NIFCCD 010] Диск XI — Четыре экспромта, скерцо, полонез, ноктюрны и прелюдии (Kevin Kenner).

Диск XI — NIFCCD 010.
Четыре экспромта, скерцо, полонез, ноктюрны и прелюдии для фортепиано.-Четыре экспромта.
07. Экспромт № 1 As-dur, op. 29 (до 1837, опубл. 1837). Allegro assai, quasi presto [03:46].
04. Экспромт № 2 Fis-dur, op. 36 (1839, опубл. 1840). Andantino [05:30].
10. Экспромт № 3 Ges-dur, op. 51 (1842, опубл. 1843). Vivace. — Sostenuto. — Tempo I [05:30].
02. [Фантазия-]экспромт cis-moll, op. 66 posth., WN 46 (ок. 1834; опубл. 1855, версия Фонтаны). Allegro agitato. — Largo. — Moderato cantabile. — Presto [05:33].
03. Скерцо № 3 cis-moll, op. 39 (1838 — 1839, опубл. 1840). Presto con fuoco. — Meno mosso. — Tempo I. — Meno mosso. — Più lento. — Tempo I. [07:43]
01. Прелюдия № 25 cis-moll, op. 45 (1841, опубл. 1841). Sostenuto [04:42].
09. [Прелюдия] № 26 As-dur, B. 86, WN 44 (1834; опубл. 1918). Presto con leggierezza [00:41].
Два полонеза, op. 40 (1838 — 1839, опубл. 1840).
08. № 2 (4) c-moll. Allegro maestoso [07:21].
Два ноктюрна, op. 32 (1835?/1836 — 1837, опубл. 1837).
05. № 1 (9) H-dur. Andante sostenuto [05:06].
06. № 2 (10) As-dur. Lento. — [Без указания темпа.] — Appassionato [05:41].
Три мазурки, op. 59 (1845, опубл. 1845).
11. № 1 (36) a-moll. Moderato [04:09].
12. № 2 (37) As-dur. Allegretto [02:34].
13. № 3 (38) fis-moll. Vivace [03:43].-Исполнитель:
Kevin Kenner (фортепиано, Pleyel, 1848).

[NIFCCD 011] Диск XII — Три полонеза, ноктюрны, мазурки и вальс (Janusz Olejniczak).

Диск XII — NIFCCD 011.
Три полонеза, ноктюрны, мазурки и вальс для фортепиано.-Два полонеза, op. 40 (1838 — 1839, опубл. 1840).
06. № 1 (3) A-dur (1838 — 1839). Allegro con brio [05:45].
02. Полонез № 5 fis-moll, op. 44 (1841, опубл. 1841). [Без указания темпа.] — [Без указания темпа.] — Doppio movimento (Tempo di mazurka). — Tempo I (Tempo di polacca) [12:04].
10. Полонез № 6 As-dur, op. 53 (1-я верс. 1836?; 1842, опубл. 1843). Maestoso [07:18].
Три [блестящих] вальса, op. 34 (опубл. 1838).
07. [Большой блестящий] вальс № 2 (3) a-moll (1831?). Lento [06:19].
Два ноктюрна, op. 48 (1841, опубл. 1841).
01. № 1 (13) c-moll. Lento. — Poco più lento. — Doppio movimento [07:05].
Два ноктюрна, op. 62 (1845 — 1846?, опубл. 1846).
03. № 1 (17) H-dur. Andante [07:52].
Четыре мазурки, op. 17 (до 1833, опубл. 1834).
04. № 3 (12) As-dur. Legato assai [05:31].
Четыре мазурки, op. 30 (1835 — 1837, опубл. 1837).
05. № 2 (19) h-moll. Allegretto [01:26].
Четыре мазурки, op. 68 posth. (опубл. 1855).
08. № 2 (49) a-moll, WN 14 [sic!] (1826/1827). Lento. — Poco più mosso. — Tempo I [03:49].
09. № 3 (50) F-dur, WN 25 (1829/1830?, до 1830). Allegro, ma non troppo. — Poco più vivo. — Tempo I [01:41].
11. № 4 (51) f-moll, WN 65 (1849). Andantino [03:04].-Исполнитель:
Janusz Olejniczak (фортепиано: Érard, 1849; Pleyel, 1848 — трек 6).

[NIFCCD 012] Диск XIII — Два скерцо, ноктюрны, мазурки и полонез (Dina Yoffe / Дина Иоффе).

Диск XIII — NIFCCD 012.
Два скерцо, ноктюрны, мазурки и полонез для фортепиано.-02. Скерцо № 1 h-moll, op. 20 (1-я ред. 1831?, 2-я ред. ок. 1833, опубл. 1835). Presto con fuoco. — [Колядка «Lulajże Jezuniu».] Molto più lento. — Tempo I [11:00].
14. Скерцо № 4 E-dur, op. 54 (1842, опубл. 1843). Presto. — Più lento. — Tempo I [12:36].
Два полонеза, op. 26 (после 1830, опубл. 1836).
08. № 2 (2) es-moll. Maestoso. — Meno mosso. — Tempo I [09:18].
Три ноктюрна, op. 15 (опубл. 1833/1834).
01. № 1 (4) F-dur (1830? — 1832). Andante cantabile. — Con fuoco. — Tempo I [04:58].
12. № 2 (5) Fis-dur (1830? — 1832). Larghetto. — Doppio movimento. — Tempo I [03:32].
07. № 3 (6) g-moll (1833). Lento. — Religioso [05:00].
Два ноктюрна, op. 55 (1843, опубл. 1844).
03. № 1 (15) f-moll. Andante. — Più mosso. — Tempo I [05:14].
Два ноктюрна, op. 62 (1845 — 1846?, опубл. 1846).
13. № 2 (18) E-dur. Lento. — Agitato. — [Tempo I] [06:00].
Четыре мазурки, op. 7 (до 1832, опубл. 1832).
11. № 1 (5) B-dur. Vivace [02:53].
Четыре мазурки, op. 17 (до 1833, опубл. 1834).
05. № 4 (13) a-moll (1-я верс. 1824?; 2-я верс. нач. 1830-х?). Lento, ma non troppo [04:57].
Четыре мазурки, op. 67 posth. (опубл. 1855).
06. № 1 (44) G-dur, WN 26 (ок. 1830?, автограф 1835). Vivace [01:33].
10. № 2 (45) g-moll, WN 64 (1848/1849). Cantabile [02:27].
04. № 3 (46) C-dur, WN 48 (1835?). Allegretto [01:59].
09. № 4 (47) a-moll, WN 60 (1846/1847; версия Фонтаны) [03:23].-Исполнитель:
Dina Yoffe / Дина Иоффе (фортепиано, Pleyel, 1848).

[NIFCCD 013] Диск XIV — Камерно-инструментальные ансамбли (Jan Krzysztof Broja, Andrzej Bauer, Jakub Jakowicz).

Диск XIV — NIFCCD 013.
Камерно-инструментальные ансамбли.-Соната для фортепиано и виолончели g-moll, op. 65 (1845 — 1847, опубл. 1847).
01. I. Allegro moderato [12:50].
02. II. Scherzo [05:05].
03. III. Largo [04:03].
04. IV. Finale. Allegro. — [Кода.] Più mosso [07:06].
Блестящий полонез, предваренный вступлением, C-dur для фортепиано и виолончели, op. 3 (1829 — 1830, опубл. 1831; 2-я ред. коды опубл. 1837).
05. Lento. — Alla polacca [09:32].
Большой концертный дуэт E-dur на темы из «Роберта-Дьявола» Мейербера для фортепиано и виолончели, B. 70, Dbop. 16 (1832 — 1833, опубл. 1833).
06. Вступление. Largo. — [Романс Алисы (№ 2).] Andantino. — [Интродукция I акта (№ 1).] Allegretto. — [Терцет (№ 23).] Andante cantabile. — [Кода.] Tempo I [13:50].
Трио g-moll для фортепиано, скрипки и виолончели, op. 8 (1828 — 1829, опубл. 1833).
07. I. Allegro con fuoco [08:30].
08. II. Scherzo. Vivace. — Trio. — Scherzo da capo [06:12].
09. III. Adagio. Sostenuto [06:01].
10. IV. Finale. Allegretto [05:55].-Исполнители:
Jakub Jakowicz (скрипка),
Andrzej Bauer (виолончель),
Jan Krzysztof Broja (фортепиано, Érard, 1849).

[NIFCCD 014] Диск XV — Концертное аллегро, рондо, вариации, болеро, тарантелла, колыбельная, ноктюрн и полонез (Николай Демиденко / Nikolai Demidenko).

Диск XV — NIFCCD 014.
Концертное аллегро, рондо, вариации, болеро, тарантелла, колыбельная, ноктюрн и полонез для фортепиано.-Вариации B-dur на тему «Là ci darem la mano» из «Дон Жуана» Моцарта для фортепиано с оркестром, op. 2 (1827 — 1828, опубл. 1830), оригинальная версия для одного фортепиано.
09. Вступление. Largo. — Poco più mosso. — [03:54].
10. — Тема. Allegretto. — [02:01].
11. — Вариация I. Brillante. — [01:03].
12. — Вариация II. Veloce, ma accuratamente. — [01:07].
13. — Вариация III. Sempre sostenuto. — [01:34].
14. — Вариация IV. — [01:17].
15. — Вариация V. Adagio. — [02:06].
16. — Alla polacca [03:45].
07. Концертное аллегро A-dur, op. 46 (ок. 1832 — 1841?, опубл. 1841). Allegro maestoso [12:13].
05. Рондо c-moll, op. 1 (1825, опубл. 1825, 1835). Allegro [10:06].
06. Рондо Es-dur, op. 16 (1829? — 1834?, опубл. 1834). Вступление. Andante. — Più mosso. — Рондо. Allegro vivace [11:30].
Три полонеза, op. 71 posth. (опубл. 1855).
08. № 1 (8) d-moll, WN 11 (1825 — 1827 / 1827?). Allegro maestoso. — [Trio.] — [Polonaise] da capo [06:14].
Два ноктюрна, op. 27 (1833 — 1836, опубл. 1836).
02. № 1 (7) cis-moll. Larghetto. — Più mosso. — Tempo I [05:15].
04. Болеро a-moll, op. 19 (1833?, до 1834, опубл. 1834). Вступление. Allegro molto. — Più lento. — [Болеро.] Allegro vivace [08:16].
03. Тарантелла As-dur, op. 43 (1841, опубл. 1841). Presto [03:11].
01. Колыбельная Des-dur, op. 57 (1844, опубл. 1845). Andante [04:44].-Исполнитель:
Николай Демиденко / Nikolai Demidenko (фортепиано, Pleyel, 1848).

[NIFCCD 015] Диск XVI — Первая соната, Три новых этюда, мазурки, контрданс и Cantabile (Ewa Pobłocka).

Диск XVI — NIFCCD 015.
Первая соната, Три новых этюда, мазурки, контрданс и Cantabile для фортепиано.-Соната № 1 c-moll, op. 4 (1827 — 1828; опубл. 1851).
01. I. Allegro maestoso [07:40].
02. II. Menuetto. Allegretto. — Trio. — Menuetto da capo [04:58].
03. III. Larghetto [03:58].
04. IV. Finale. Presto [07:48].
[Три новых] этюда, B. 130, Dbop. 36 (1839, опубл. 1840).
05. № 1 (25) f-moll. Andantino [02:21].
07. № 2 (26) As-dur [sic!]. Allegretto [02:12].
06. № 3 (27) Des-dur [sic!]. Allegretto [02:03].
Пять мазурок, op. 6 (до 1832, опубл. 1832).
19. № 1 (1) fis-moll. [Метроном] [02:40].
20. № 2 (2) cis-moll. [Метроном] [02:35].
21. № 3 (3) E-dur. Vivace [01:54].
22. № 4 (4) es-moll. Presto, ma non troppo [01:04].
12. № 5 (9) [op. 7 № 5 в немецком издании] C-dur. Vivo [00:51].
Четыре мазурки, op. 7 (до 1832, опубл. 1832).
08. № 1 (5) B-dur. Vivace [02:12].
09. № 2 (6) a-moll. Vivo, ma non troppo [03:22].
10. № 3 (7) f-moll. [Метроном] [02:15].
11. № 4 (8) As-dur. Presto, ma non troppo [01:13].
Четыре мазурки, op. 17 (до 1833, опубл. 1834).
13. № 1 (10) B-dur. Vivo e risoluto [02:13].
Четыре мазурки, op. 41 (опубл. 1840).
23. № 1 (27) [№ 2 в немецком издании] e-moll (1838). Andantino. [Песня «Tam na błoniu błyszczy kwiecie» Венцеля Галленберга на слова Францишка Ковальского] [02:23].
24. № 2 (28) [№ 3 в немецком издании] H-dur (1839). Animato [01:08].
25. № 3 (29) [№ 4 в немецком издании] As-dur (1839). Allegretto [02:00].
26. № 4 (26) [№ 1 в немецком издании] cis-moll (1839). Maestoso [03:20].
27. Мазурка № 43 a-moll (из «La France musicale»), B. 134, Dbop. 42 B (1839? — 1841, опубл. 1841). Allegretto [03:38].
18. Мазурка № 52 B-dur, B. 16 № 2, WN 7 (1825?/1826, опубл. 1826; 1851, 1875). [Vivace] [01:22].
17. Мазурка № 53 G-dur, B. 16 № 1, WN 8 (1825?/1826, опубл. 1826; 1851, 1875). [Con anima.] — Trio. — [Mazur] da capo [01:17].
15. Мазурка № 56 B-dur (из альбома Александры Воловской), B. 73, WN 41 (1832; опубл. 1909). [Allegretto.] — Trio. — [Mazur] da capo [01:16].
14. Контрданс Ges-dur, B. 17, WN 27 (1827?, ок. 1830; опубл. 1934, 1948). [Allegretto.] — Trio. — [Contredanse] da capo [01:40].
16. Cantabile B-dur, B. 84, WN 47 (1834; опубл. 1925, 1955). [Andantino] [01:02].-Исполнитель:
Ewa Pobłocka (фортепиано, Pleyel, 1848).-Второй и третий этюды в буклете перепутаны местами из-за путаницы с их порядком в изданиях сочинений Шопена.

[NIFCCD 016] Диск XVII — Полное собрание песен (Aleksandra Kurzak, Mariusz Kwiecień, Nelson Goerner).

Диск XVII — NIFCCD 016.
Полное собрание песен для голоса с фортепиано.-Польские песни, op. 74 posth. (опубл. 1859).
01. № 1 G-dur. Желание (Życzenie; Стефан Витвицкий), WN 21 (1829?). Allegro ma non troppo [01:57].
14. № 2 g-moll. Весна (Wiosna; Стефан Витвицкий), WN 52 (1838). Andantino [02:04].
09. № 3 fis-moll. Печальная река (Smutna rzeka; Стефан Витвицкий), WN 39 (1831). Allegretto. — Più lento [03:01].
05. № 4 C-dur. Гулянка (Hulanka; Стефан Витвицкий), WN 32 (1830). Vivace [02:20].
02. № 5 A-dur. Где кому любо (Где любит; Gdzie lubi; Стефан Витвицкий), WN 22 (1829?). Allegro [01:13].
06. № 6 f-moll. «Прочь с моих глаз» (Precz z moich oczu; Адам Бернард Мицкевич), WN 33 (1827?, 2-я верс.1830?). Larghetto. — Andantino espressivo [03:29].
03. № 7 D-dur. Вестница (Poseł; Стефан Витвицкий), WN 30 (1830). Andantino [03:10].
15. № 8 D-dur. Пригожий хлопец (Пригожий парень; Śliczny chłopiec; Юзеф Богдан Залеский), WN 54 (1841). Allegro moderato [03:28].
19. № 9 G-dur. [Мелодия] ([Melodya] — Z gór, gdzie dźwigali; Н.С.А.Ф. Зыгмунт Красиньский), WN 61 (1847). Andante [02:43].
07. № 10 As-dur. Воин (Wojak; Стефан Витвицкий), WN 34 (1830). Vivace. — Vivacissimo [02:43].
18. № 11 d-moll. Двойная смерть (Djowaki koniec; Юзеф Богдан Залеский), WN 58 (1845). Allegretto [02:30].
13. № 12 Ges-dur. «Моя голубка» («Моя баловница»; Moja pieszczotka; Адам Бернард Мицкевич), WN 51 (1837). Allegretto [02:05].
17. № 13 a-moll. «Нет того, что нужно» (Nie ma, czego trzeba; Юзеф Богдан Залеский), WN 57 (1845). Lento [05:04].
12. № 14 Es-dur. Колечко (Pierścień; Стефан Витвицкий), WN 50 (1836). Moderato [02:29].
10. № 15 c-moll. Жених (Narzeczony; Стефан Витвицкий), WN 40 (1831). Prestissimo. — Agitato vivo [02:17].
08. № 16 F-dur. Литовская песенка (Piosnka litewska; пер. с лит. Людвика Осиньского), WN 38 (1830/1831). Allegro moderato [02:19].
11. № 17 es-moll. «Летит листва с дерева» (Могильная песня; Leci liście z drzewa — Śpiew z mogily; Винцентий Феррериуш Якуб Поль), WN 49 (1836). Moderato. — Lento. — Molto mosso. — Tempo I [05:03].
04. «Чары» (Czary) d-moll (Стефан Витвицкий), B. 51, WN 31 (1829/1830; оп. 1910, 1951) [02:51].
16. Думка (Dumka) a-moll (Юзеф Богдан Залеский), B. 132, WN deest (ранняя версия песни «Нет того, что нужно», op. 74 posth. № 13; 1840; оп. 1910, 1951) [01:28].-Исполнители:
Aleksandra Kurzak (сопрано),
Mariusz Kwiecień (баритон).
Nelson Goerner (фортепиано, Pleyel, 1848).

[NIFCCD 017] Диск XVIII — Рондо, вариации, мазурки, полонез, вальс, малые сочинения (Татьяна Шебанова / Tatiana Shebanova; Jarosław & Stanisław Drzewiecki).

Диск XVIII — NIFCCD 017.
Рондо, вариации, мазурки, полонез, вальс и малые сочинения для фортепиано.-Рондо C-dur для двух фортепиано, op. 73 posth., WN 15 (версия для одного фортепиано 1826/1827, версия для двух фортепиано 1828; опубл. 1855).
04. Allegro maestoso [09:18].
Вариации D-dur на тему Томаса Мура для фортепиано в четыре руки, B. 12a, WN 5 [sic!] (ок. 1824 — 1826; опубл. 1965, реконструкция. Яна Экера).
12. [Вступление.] — [06:53].
(18) — Тема. —
(19) — Вариация I. —
(20) — Вариация II. —
(21) — Вариация III. —
(22) — Вариация IV. —
(23) — Вариация V. Tempo di marcia. —
(24) — Vivace.
03. Рондо в стиле мазурки (à la mazur) F-dur, op. 5 (1825?/1826, опубл. 1828). Vivace [10:11].
Блестящие вариации B-dur на тему «Je vends des scapulaires» из «Людовика» Герольда и Галеви, op. 12 (1833).
02. [Вступление.] Allegro maestoso. — [08:39].
(03) — Тема. Allegro moderato. —
(04) — [Вариация I.] —
(05) — [Вариация II.] Scherzo. —
(06) — [Вариация III.] Lento. —
(07) — [Вариация IV и кода.] Scherzo vivace.
13. [Варианты] A-dur на тему из «Венецианского карнавала» Паганини, B. 37, WN 16 (1829; опубл. 1880). [Allegretto] [03:36].
15. Полонез № 16 Ges-dur, B. 36, WN 35 (1830). [Maestoso.] — [Trio. Meno mosso.] — Polonaise da capo [09:45].
17. Вальс Es-dur, B. 46, WN deest (1829 — 1830; опубл. 1902; авторство Шопена сомнительно). [Без обозначения темпа] [03:36].
10. Мазурка № 55 D-dur, B. 71, WN deest (1832?; опубл. 1880; 2-я версия мазурки № 54, B. 31; текст мог быть сильно испорчен Оскаром Кольбергом). [Allegro non troppo] [01:36].
09. Мазурка № 56 B-dur (из альбома Александры Воловской), B. 73, WN 41 (1832; опубл. 1909). [Allegretto.] — Trio. — [Mazur] da capo [01:19].
07. Мазурка № 57 C-dur, B. 82, WN deest (1825?/1833?; опубл. 1869; авторство Шопена сомнительно). [Vivace] [03:05].
08. Мазурка № 58 As-dur (из альбома Марии Шимановской), B. 85, WN 45 (1834; опубл. 1930). [Poco mosso] [01:51].
Ноктюрн, похоронный марш и три экосеза, op. 72 posth. (опубл. 1855).
05. № 2. Похоронный марш c-moll, WN 9 (1826, версия Фонтаны). Tempo di marcia. — Trio. — [Tempo I] [05:42].
11. [Листок из альбома] E-dur, B. 151, WN 56 (1843; опубл. 1910). Moderato [01:29].
16. [Мазурка] Fis-dur, B. deest, WN 36, реконструкция Яна Экера на основе «Воспоминания о Польше», op. 112 Карла Майера (ок. 1829 — 1831; реконструкция опубл. 1990). [Allegretto] [00:55].
01. Largo Es-dur, гармонизация «Boże, coś Polskę», B. 109a, WN deest (опубл. 1938). Largo [01:58].
Польские песни для голоса с фортепиано, op. 74 posth. (опубл. 1859).
18. № 2 g-moll. Весна (Wiosna, 1838), оригинальное переложение для фортепиано, B. 117, WN 52a (1838). Andantino [03:36].
06. Фуга a-moll, B. 144, WN deest (ок. 1841?; опубл. 1898). [Andante] [02:50].
«Гексамерон», концертная пьеса As-dur, большие виртуозные вариации на тему марша из «Пуритан» Беллини, сочинение [шести композиторов], S. 392 (1837 — 1838, опубл. 1839).
14. Вариация VI (B. 113, Dbop. 29). Largo [02:15].-Исполнители:
Татьяна Шебанова / Tatiana Shebanova (фортепиано, Érard, 1849).
Jarosław Drzewiecki (фортепиано II, Pleyel, 1848, трек 4).
Stanisław Drzewiecki (I партия, трек 12).

[NIFCCD 018] Диск XIX — Полонезы (в т.ч. ранние), мазурки, рондо, вариации, ноктюрн и галоп (Татьяна Шебанова / Tatiana Shebanova).

Диск XIX — NIFCCD 018.
Полонезы (в т.ч. ранние), мазурки, рондо, вариации, ноктюрн и галоп для фортепиано.-Рондо C-dur для двух фортепиано, op. 73 posth., WN 15 (версия для одного фортепиано 1826/1827, версия для двух фортепиано 1828; опубл. 1855), черновая версия для одного фортепиано.
15. [Allegro maestoso] [10:28].
Интродукция и вариации E-dur на тему немецкой народной песни «Швейцарский мальчик» (»Der Schweizerbub«), B. 14, WN 6 [sic!] (1820/1824 — 1829; опубл. 1851).
14. Вступление. A capriccio. — [09:21].
(15) — Тема. Andantino. —
(16) — Вариация I. Elegantamente. —
(17) — Вариация II. Scherzando. —
(18) — Вариация III. Tranquillamente. —
(19) — Вариация IV. Meno mosso. —
(20) — Tempo di valse.
Два полонеза, op. 26 (после 1830, опубл. 1836).
04. № 1 (1) cis-moll. Allegro appassionato. — Meno mosso. — [Polonaise] da capo [07:55].
Три полонеза, op. 71 posth. (опубл. 1855).
03. № 3 (10) f-moll, WN 12 (1826 — 1828; 1829?; до осени 1829). Allegro moderato. — [Trio.] — [Polonaise] da capo [09:34].
02. Полонез № 14 gis-moll, B. 6, WN 4 [sic!] (ок. 1824?; между 1822 и 1827; опубл. 1864?). Moderato. — Trio. — Polonaise da capo [06:31].
01. Полонез № 15 b-moll, B. 13, WN 10 (1826; опубл. 1881). [Allegro moderato.] — Трио. «До свиданья!» ([каватина «Vieni fra queste braccia» из] «Сороки-воровки» [Россини]). — Polonaise da capo [05:29].
Три ноктюрна, op. 15 (опубл. 1833/1834).
11. № 3 (6) g-moll (1833). Lento. — Religioso [05:24].
Четыре мазурки, op. 30 (1835 — 1837, опубл. 1837).
06. № 3 (20) Des-dur. Allegro non troppo [02:55].
Три мазурки, op. 56 (1843, опубл. 1844).
12. № 1 (33) H-dur. Allegro non tanto. — Poco più mosso. — Allegro non tanto. — Poco più mosso. — [Кода] [04:58].
08. № 2 (34) C-dur. Vivace [01:53].
Три мазурки, op. 63 (1846, опубл. 1847).
13. № 1 (39) H-dur. Vivace [02:30].
07. № 2 (40) f-moll. Lento [01:44].
05. № 3 (41) cis-moll. Allegretto [02:14].
09. Мазурка № 42 a-moll (посв. Э. Гайяру), B. 140, Dbop. 42 A (1839? — 1840, опубл. 1841). Allegretto [03:23].
Четыре мазурки, op. 68 posth. (опубл. 1855).
10. № 1 (48) C-dur, WN 24 (1829/1830?, до 1830). Vivace [03:23].
16. Галоп As-dur «Маркиз», B. deest, WN 59 (1846; опубл. 1990).-Исполнитель:
Татьяна Шебанова / Tatiana Shebanova (фортепиано, Érard, 1849).

[NIFCCD 019] Диск XX — Восемнадцать вальсов и ранние полонезы (Marek Drewnowski).

Диск XX — NIFCCD 019.
Восемнадцать вальсов и ранние полонезы для фортепиано.-Три полонеза, op. 71 posth. (опубл. 1855).
22 № 2 (9) B-dur, WN 17 (1829). Allegro, ma non troppo. — [Trio.] — [Polonaise] da capo [07:07].
19. Полонез № 11 g-moll, B. 1, WN 2 (1817, опубл. 1817, 1926). [Allegro, ma non troppo.] — Trio. — Polonaise da capo [03:18].
21. Полонез № 12 B-dur, B. 3, WN 1 (1817; опубл. 1934). [Vivo.] — Trio. — Polonaise da capo [03:11].
20. Полонез № 13 As-dur, B. 5, WN 3 (1821; опубл. 1901). [Animato.] — Trio. — Polonaise da capo [05:14].-01. [Большой блестящий] вальс (№ 1) Es-dur, op. 18 (1831?/1833, опубл. 1834). Vivo [05:04].
Три [блестящих] вальса, op. 34 (опубл. 1838).
02. [Большой блестящий] вальс № 1 (2) As-dur (1-я ред. 1835, 2-я ред. до 1838). Vivace [05:46].
03. [Большой блестящий] вальс № 2 (3) a-moll (1831?). Lento [05:33].
04. [Большой блестящий] вальс № 3 (4) F-dur (до 1838). Vivace [02:19].
05. Вальс (№ 5) As-dur, op. 42 (1839? — 1840, опубл. 1840). [Без указания темпа] [03:55].
Три вальса, op. 64 (1840? / 1846 — 1847, опубл. 1847).
06. № 1 (6) Des-dur. Molto vivace [01:47].
07. № 2 (7) cis-moll. Tempo giusto. — Più lento. — Più mosso. — Tempo I [03:22].
08. № 3 (8) As-dur. Moderato [03:12].
Два вальса, op. 69 posth. (опубл. 1855).
09. № 1 (9) As-dur, WN 47 (1835?, версия Фонтаны). Lento [04:19].
10. № 2 (10) h-moll, WN 19 (1829, версия Фонтаны). Moderato [03:14].
Три вальса, op. 70 posth. (опубл. 1855).
11. № 1 (11) Ges-dur, WN 42 (1832). Molto vivace. — Meno mosso. — Tempo I [02:11].
12. № 2 (12) f-moll, WN 55 (1841, версия Фонтаны). Tempo giusto [03:16].
13. № 3 (13) Des-dur, WN 20 (1829). Moderato [03:02].
14. Вальс № 14 e-moll, B. 56, WN 29 (ок. 1830, опубл. 1868). Vivace [02:50].
15. Вальс № 15 E-dur, B. 44, WN 18 (1829; опубл. 1861?/1871). Tempo di valse [02:32].
16. Вальс № 16 As-dur, B. 21, WN 28 (1827?, до 1830; опубл. 1902). [Без указания темпа.] — Трио. — Da capo valse [01:54].
17. [Вальс] Es-dur, B. 133, WN 53 (1840; опубл. 1955). Sostenuto [01:35].
18. Вальс a-moll, B. 150, WN 63 (1843? / 1847 — 1849; опубл. 1955). Allegretto [02:05].-Исполнитель:
Marek Drewnowski (фортепиано: Pleyel, 1848; Érard, 1849 — трек 22).

[NIFCCD 020] Диск XXI — Четырнадцать ноктюрнов (Đặng Thái Sơn / Dang Thai Son).

Диск XXI — NIFCCD 020.
Четырнадцать ноктюрнов для фортепиано.-Три ноктюрна, op. 9 (до 1832, опубл. 1832).
06. № 1 (1) b-moll. Larghetto [06:32].
12. № 2 (2) Es-dur. Andante [04:19].
08. № 3 (3) H-dur. Allegretto. — Agitato. — Tempo I [06:30].
Три ноктюрна, op. 15 (опубл. 1833/1834).
07. № 2 (5) Fis-dur (1830? — 1832). Larghetto. — Doppio movimento. — Tempo I [03:27].
Два ноктюрна, op. 27 (1833 — 1836, опубл. 1836).
09. № 1 (7) cis-moll. Larghetto. — Più mosso. — Tempo I [05:38].
Два ноктюрна, op. 32 (1835?/1836 — 1837, опубл. 1837).
10. № 1 (9) H-dur. Andante sostenuto [04:29].
05. № 2 (10) As-dur. Lento. — [Без указания темпа.] — Appassionato [05:22].
Два ноктюрна, op. 37 (опубл. 1840).
04. № 1 (11) g-moll (1837? — 1838). Andante sostenuto [06:50].
03. № 2 (12) G-dur (1839). Andantino [05:22].
Два ноктюрна, op. 55 (1843, опубл. 1844).
13. № 1 (15) f-moll. Andante. — Più mosso. — Tempo I [04:56].
02. № 2 (16) Es-dur. Lento sostenuto [05:47].
Ноктюрн, похоронный марш и три экосеза, op. 72 posth. (опубл. 1855).
11. № 1. Ноктюрн (№ 19) e-moll, WN 23 (1827?, до 1830? / 1840-е?). Andante [04:31].
14. [Ноктюрн № 20] cis-moll, B. 49, WN 37 (1830; опубл. 1875). Lento con gran espressione [04:05].
01. Ноктюрн № 21 c-moll, B. 108, WN 62 (1827? / ок. 1845 — 1848; опубл. 1938). Andante sostenuto [02:59].-Исполнитель:
Đặng Thái Sơn / Dang Thai Son (фортепиано, Érard, 1849).

Исполнители (по дискам)

Диск I
Raul Koczalski (фортепиано Шопена, Pleyel, 1847).
Диск II
Fou Ts’ong (фортепиано, Érard, 1849).
Диск III
Colleen Lee Ka-ling (фортепиано, Pleyel, 1848).
Диск IV
Nelson Goerner (фортепиано, Pleyel, 1848).
Диск V
Đặng Thái Sơn / Dang Thai Son (фортепиано, Érard, 1849).
Orkiestra XVIII Wieku (Orchestra of the 18th Century).
Дирижер Frans Brüggen.
Диск VI
Татьяна Шебанова / Tatiana Shebanova (фортепиано, Érard, 1849).
Диск VII
Wojciech Świtała (фортепиано: Pleyel, 1848; Érard, 1849).
Диск VIII
Татьяна Шебанова / Tatiana Shebanova (фортепиано, Érard, 1849).
Диск IX
Janusz Olejniczak (фортепиано, Érard, 1849).
Диск X
Nelson Goerner (фортепиано, Érard, 1849).
Orkiestra XVIII Wieku (Orchestra of the 18th Century).
Дирижер Frans Brüggen.
Диск XI
Kevin Kenner (фортепиано, Pleyel, 1848).
Диск XII
Janusz Olejniczak (фортепиано: Érard, 1849; Pleyel, 1848).
Диск XIII
Dina Yoffe / Дина Иоффе (фортепиано, Pleyel, 1848).
Диск XIV
Jakub Jakowicz (скрипка),
Andrzej Bauer (виолончель),
Jan Krzysztof Broja (фортепиано, Érard, 1849).
Диск XV
Николай Демиденко / Nikolai Demidenko (фортепиано, Pleyel, 1848).
Диск XVI
Ewa Pobłocka (фортепиано, Pleyel, 1848).
Диск XVII
Aleksandra Kurzak (сопрано),
Mariusz Kwiecień (баритон).
Nelson Goerner (фортепиано, Pleyel, 1848).
Диск XVIII
Татьяна Шебанова / Tatiana Shebanova (фортепиано, Érard, 1849).
Jarosław Drzewiecki (фортепиано II, Pleyel, 1848).
Stanisław Drzewiecki (I партия).
Диск XIX
Татьяна Шебанова / Tatiana Shebanova (фортепиано, Érard, 1849).
Диск XX
Marek Drewnowski (фортепиано: Pleyel, 1848; Érard, 1849)
Диск XXI
Đặng Thái Sơn / Dang Thai Son (фортепиано, Érard, 1849).
Большинство произведений играются, очевидно, по изданию под редакцией Падеревского.-

Логи создания рипаДиск I — NIFCCD 000.

Exact Audio Copy V1.0 beta 3 from 29. August 2011
EAC extraction logfile from 22. January 2015, 20:59
Fryderyk Chopin / The Real Chopin - Historical Live Recordings from 1948
Used drive : ATAPI iHAS124 B Adapter: 0 ID: 0
Read mode : Secure
Utilize accurate stream : Yes
Defeat audio cache : Yes
Make use of C2 pointers : No
Read offset correction : 6
Overread into Lead-In and Lead-Out : No
Fill up missing offset samples with silence : Yes
Delete leading and trailing silent blocks : No
Null samples used in CRC calculations : Yes
Used interface : Native Win32 interface for Win NT & 2000
Gap handling : Appended to previous track
Used output format : User Defined Encoder
Selected bitrate : 1024 kBit/s
Quality : High
Add ID3 tag : No
Command line compressor : C:\Program Files (x86)\Exact Audio Copy\Flac\flac.exe
Additional command line options : -8 -V -T "ARTIST=%artist%" -T "TITLE=%title%" -T "ALBUM=%albumtitle%" -T "DATE=%year%" -T "TRACKNUMBER=%tracknr%" -T "GENRE=%genre%" -T "PERFORMER=%albuminterpret%" -T "COMPOSER=%composer%" %haslyrics%--tag-from-file=LYRICS="%lyricsfile%"%haslyrics% -T "ALBUMARTIST=%albumartist%" -T "DISCNUMBER=%cdnumber%" -T "TOTALDISCS=%totalcds%" -T "TOTALTRACKS=%numtracks%" -T "COMMENT=%comment%" %source% -o %dest%
TOC of the extracted CD
Track | Start | Length | Start sector | End sector
---------------------------------------------------------
1 | 0:05.55 | 1:17.08 | 430 | 6212
2 | 1:22.63 | 5:12.67 | 6213 | 29679
3 | 6:35.55 | 2:02.56 | 29680 | 38885
4 | 8:38.36 | 4:15.54 | 38886 | 58064
5 | 12:54.15 | 4:49.70 | 58065 | 79809
6 | 17:44.10 | 4:10.62 | 79810 | 98621
7 | 21:54.72 | 9:02.55 | 98622 | 139326
8 | 30:57.52 | 0:19.20 | 139327 | 140771
Track 1
Filename D:\EAC Rips\The Real Chopin\Disc 1 - Historical Live Recordings from 1948\01 - Prelude in C minor Largo, Op. 28 No. 20 [1831–1839].wav
Pre-gap length 0:00:07.73
Peak level 57.4 %
Extraction speed 2.5 X
Track quality 100.0 %
Test CRC D80A4D0C
Copy CRC D80A4D0C
Cannot be verified as accurate (confidence 8) [55BAC5C5], AccurateRip returned [71F65549] (AR v2)
Copy OK
Track 2
Filename D:\EAC Rips\The Real Chopin\Disc 1 - Historical Live Recordings from 1948\02 - Nocturne in D flat major, Op. 27 No. 2 [1833–1836].wav
Peak level 68.7 %
Extraction speed 3.7 X
Track quality 100.0 %
Test CRC 422C5560
Copy CRC 422C5560
Cannot be verified as accurate (confidence 8) [FEFC16C8], AccurateRip returned [0F33199F] (AR v2)
Copy OK
Track 3
Filename D:\EAC Rips\The Real Chopin\Disc 1 - Historical Live Recordings from 1948\03 - Mazurka in B flat major, Op. 7 No. 1 [before 1832].wav
Peak level 65.3 %
Extraction speed 3.4 X
Track quality 100.0 %
Test CRC 014F182D
Copy CRC 014F182D
Cannot be verified as accurate (confidence 8) [9EE48803], AccurateRip returned [C8AE71B1] (AR v2)
Copy OK
Track 4
Filename D:\EAC Rips\The Real Chopin\Disc 1 - Historical Live Recordings from 1948\04 - Berceuse in D flat major, Op. 57 [1844].wav
Peak level 64.3 %
Extraction speed 4.2 X
Track quality 100.0 %
Test CRC 10D3A4EB
Copy CRC 10D3A4EB
Cannot be verified as accurate (confidence 8) [4783879B], AccurateRip returned [C442773C] (AR v2)
Copy OK
Track 5
Filename D:\EAC Rips\The Real Chopin\Disc 1 - Historical Live Recordings from 1948\05 - Fantasy-Impromptu in C sharp minor, Op. 66 [WN 46] [c.1834].wav
Peak level 67.5 %
Extraction speed 4.6 X
Track quality 100.0 %
Test CRC E127CA91
Copy CRC E127CA91
Cannot be verified as accurate (confidence 8) [0642530A], AccurateRip returned [A6145255] (AR v2)
Copy OK
Track 6
Filename D:\EAC Rips\The Real Chopin\Disc 1 - Historical Live Recordings from 1948\06 - Waltz in E flat major, Op. 18 [1833].wav
Peak level 83.2 %
Extraction speed 4.9 X
Track quality 100.0 %
Test CRC 4AF8E2EC
Copy CRC 4AF8E2EC
Cannot be verified as accurate (confidence 8) [2B9CE43A], AccurateRip returned [3E99F32C] (AR v2)
Copy OK
Track 7
Filename D:\EAC Rips\The Real Chopin\Disc 1 - Historical Live Recordings from 1948\07 - Ballade in G minor, Op. 23 [1835].wav
Peak level 87.1 %
Extraction speed 5.7 X
Track quality 100.0 %
Test CRC 58012332
Copy CRC 58012332
Cannot be verified as accurate (confidence 8) [26CCD573], AccurateRip returned [7C50AE20] (AR v2)
Copy OK
Track 8
Filename D:\EAC Rips\The Real Chopin\Disc 1 - Historical Live Recordings from 1948\08 - Tadeusz Bochenski afterword.wav
Peak level 80.0 %
Extraction speed 0.9 X
Track quality 99.4 %
Test CRC 8A39C8DC
Copy CRC 8A39C8DC
Cannot be verified as accurate (confidence 8) [3A5055F7], AccurateRip returned [49FC2BD2] (AR v2)
Copy OK
No tracks could be verified as accurate
You may have a different pressing from the one(s) in the database
No errors occurred
End of status report
==== Log checksum 49E1A2BEE76292CD5D21E8D8D5D233E4EB1C8C3751637074B70EBE26F636BC5F ====

Диск II — NIFCCD 001.

Exact Audio Copy V1.0 beta 3 from 29. August 2011
EAC extraction logfile from 4. December 2014, 14:51
Fou Ts'ong / Chopin - Mazurkas - Fou Ts’ong
Used drive : TSSTcorpCDDVDW SH-222BB Adapter: 2 ID: 1
Read mode : Secure
Utilize accurate stream : Yes
Defeat audio cache : Yes
Make use of C2 pointers : No
Read offset correction : 6
Overread into Lead-In and Lead-Out : No
Fill up missing offset samples with silence : Yes
Delete leading and trailing silent blocks : No
Null samples used in CRC calculations : Yes
Used interface : Native Win32 interface for Win NT & 2000
Used output format : User Defined Encoder
Selected bitrate : 896 kBit/s
Quality : High
Add ID3 tag : No
Command line compressor : C:\Program Files\Exact Audio Copy\FLAC\FLAC.EXE
Additional command line options : -8 -V -T "TITLE=%title%" -T "ARTIST=%artist%" -T "ALBUMARTIST=%albumartist%" -T "ALBUM=%albumtitle%" -T "DATE=%year%" -T "TRACKNUMBER=%tracknr%" -T "TRACKTOTAL=%numtracks%" -T "GENRE=%genre%" -T "COMMENT=%comment%" -T "PERFORMER=%albuminterpret%" -T "COMPOSER=%composer%" %source% -o %dest%
TOC of the extracted CD
Track | Start | Length | Start sector | End sector
---------------------------------------------------------
1 | 0:00.00 | 5:39.49 | 0 | 25473
2 | 5:39.49 | 1:50.67 | 25474 | 33790
3 | 7:30.41 | 2:13.32 | 33791 | 43797
4 | 9:43.73 | 6:46.01 | 43798 | 74248
5 | 16:29.74 | 1:51.29 | 74249 | 82602
6 | 18:21.28 | 4:23.50 | 82603 | 102377
7 | 22:45.03 | 5:00.42 | 102378 | 124919
8 | 27:45.45 | 1:40.55 | 124920 | 132474
9 | 29:26.25 | 3:09.43 | 132475 | 146692
10 | 32:35.68 | 3:03.74 | 146693 | 160491
11 | 35:39.67 | 2:39.73 | 160492 | 172489
12 | 38:19.65 | 5:23.16 | 172490 | 196730
13 | 43:43.06 | 1:37.39 | 196731 | 204044
14 | 45:20.45 | 2:07.65 | 204045 | 213634
15 | 47:28.35 | 2:41.14 | 213635 | 225723
16 | 50:09.49 | 4:09.16 | 225724 | 244414
17 | 54:18.65 | 3:19.24 | 244415 | 259363
18 | 57:38.14 | 3:33.52 | 259364 | 275390
Range status and errors
Selected range
Filename G:\Ripped general\[7626] Chopin – Mazurkas - Fou Ts’ong\Chopin - Mazurkas - Fou Ts’ong.wav
Peak level 63.0 %
Extraction speed 5.2 X
Range quality 100.0 %
Test CRC B90670A9
Copy CRC B90670A9
Copy OK
No errors occurred
AccurateRip summary
Track 1 accurately ripped (confidence 9) [20F706AE] (AR v2)
Track 2 accurately ripped (confidence 9) [DD596C12] (AR v2)
Track 3 accurately ripped (confidence 9) [AD563DD2] (AR v2)
Track 4 accurately ripped (confidence 9) [31A3AF13] (AR v2)
Track 5 accurately ripped (confidence 9) [E7D9C6AF] (AR v2)
Track 6 accurately ripped (confidence 9) [098682A8] (AR v2)
Track 7 accurately ripped (confidence 9) [5BDC00F3] (AR v2)
Track 8 accurately ripped (confidence 9) [6A48360F] (AR v2)
Track 9 accurately ripped (confidence 9) [5B0D001D] (AR v2)
Track 10 accurately ripped (confidence 9) [C5A0BCDE] (AR v2)
Track 11 accurately ripped (confidence 9) [38B32ABA] (AR v2)
Track 12 accurately ripped (confidence 9) [F24CE77F] (AR v2)
Track 13 accurately ripped (confidence 9) [1EBFC084] (AR v2)
Track 14 accurately ripped (confidence 9) [A341D24A] (AR v2)
Track 15 accurately ripped (confidence 9) [38479A62] (AR v2)
Track 16 accurately ripped (confidence 9) [DBA0FAA8] (AR v2)
Track 17 accurately ripped (confidence 9) [2C09F97B] (AR v2)
Track 18 accurately ripped (confidence 9) [1C94A96C] (AR v2)
All tracks accurately ripped
End of status report
==== Log checksum 9DF1A21ECF5CFECA3ACA8B7B91E8E3B50A680D4031C6EF343B6F414F2BC204B4 ====

Диск III — NIFCCD 002.

Exact Audio Copy V1.0 beta 3 from 29. August 2011
EAC extraction logfile from 8. October 2014, 14:14
Ka Ling Colleen Lee / Chopin - Fantasy, 4 Mazurkas, Polonaise-Fantasy, 6 Preludes, Sonata in B Minor - Colleen Lee
Used drive : TSSTcorpCDDVDW SH-222BB Adapter: 2 ID: 1
Read mode : Secure
Utilize accurate stream : Yes
Defeat audio cache : Yes
Make use of C2 pointers : No
Read offset correction : 6
Overread into Lead-In and Lead-Out : No
Fill up missing offset samples with silence : Yes
Delete leading and trailing silent blocks : No
Null samples used in CRC calculations : Yes
Used interface : Native Win32 interface for Win NT & 2000
Used output format : User Defined Encoder
Selected bitrate : 896 kBit/s
Quality : High
Add ID3 tag : No
Command line compressor : C:\Program Files\Exact Audio Copy\FLAC\FLAC.EXE
Additional command line options : -8 -V -T "TITLE=%title%" -T "ARTIST=%artist%" -T "ALBUMARTIST=%albumartist%" -T "ALBUM=%albumtitle%" -T "DATE=%year%" -T "TRACKNUMBER=%tracknr%" -T "TRACKTOTAL=%numtracks%" -T "GENRE=%genre%" -T "COMMENT=%comment%" -T "PERFORMER=%albuminterpret%" -T "COMPOSER=%composer%" %source% -o %dest%
TOC of the extracted CD
Track | Start | Length | Start sector | End sector
---------------------------------------------------------
1 | 0:00.00 | 13:20.36 | 0 | 60035
2 | 13:20.36 | 1:36.45 | 60036 | 67280
3 | 14:57.06 | 1:40.31 | 67281 | 74811
4 | 16:37.37 | 2:14.62 | 74812 | 84923
5 | 18:52.24 | 4:55.19 | 84924 | 107067
6 | 23:47.43 | 13:26.63 | 107068 | 167580
7 | 37:14.31 | 3:17.67 | 167581 | 182422
8 | 40:32.23 | 0:29.73 | 182423 | 184670
9 | 41:02.21 | 5:28.40 | 184671 | 209310
10 | 46:30.61 | 1:09.14 | 209311 | 214499
11 | 47:40.00 | 3:08.03 | 214500 | 228602
12 | 50:48.03 | 1:07.49 | 228603 | 233676
13 | 51:55.52 | 9:15.00 | 233677 | 275301
14 | 61:10.52 | 2:53.58 | 275302 | 288334
15 | 64:04.35 | 9:54.04 | 288335 | 332888
16 | 73:58.39 | 5:20.23 | 332889 | 356911
Range status and errors
Selected range
Filename G:\Ripped general\[7744] Chopin – Fantasy, 4 Mazurkas, Polonaise-Fantasy, 6 Preludes, Sonata in B Minor – Colleen Lee\Chopin - Fantasy, 4 Mazurkas, Polonaise-Fantasy, 6 Preludes, Sonata in B Minor - Colleen Lee.wav
Peak level 90.0 %
Extraction speed 7.4 X
Range quality 100.0 %
Test CRC FA4CD319
Copy CRC FA4CD319
Copy OK
No errors occurred
AccurateRip summary
Track 1 cannot be verified as accurate (confidence 8) [D9E77CFC], AccurateRip returned [8312DA8D] (AR v2)
Track 2 cannot be verified as accurate (confidence 8) [0154403C], AccurateRip returned [CFC77BC6] (AR v2)
Track 3 cannot be verified as accurate (confidence 8) [A6D6FA2B], AccurateRip returned [471B5602] (AR v2)
Track 4 cannot be verified as accurate (confidence 8) [712B9609], AccurateRip returned [E7EC5071] (AR v2)
Track 5 cannot be verified as accurate (confidence 8) [F2FAB57B], AccurateRip returned [EAB9F364] (AR v2)
Track 6 cannot be verified as accurate (confidence 8) [4CD5A4BA], AccurateRip returned [743572BA] (AR v2)
Track 7 cannot be verified as accurate (confidence 8) [E83D6C3C], AccurateRip returned [C2B80055] (AR v2)
Track 8 cannot be verified as accurate (confidence 8) [EF6F46C4], AccurateRip returned [90F70AB9] (AR v2)
Track 9 cannot be verified as accurate (confidence 8) [2CD61473], AccurateRip returned [4F69A7DC] (AR v2)
Track 10 cannot be verified as accurate (confidence 8) [F9CC1280], AccurateRip returned [391AA8D6] (AR v2)
Track 11 cannot be verified as accurate (confidence 8) [D4B1FDA6], AccurateRip returned [9854B2BF] (AR v2)
Track 12 cannot be verified as accurate (confidence 8) [0589C976], AccurateRip returned [16A38335] (AR v2)
Track 13 cannot be verified as accurate (confidence 8) [BE0D92F1], AccurateRip returned [0C3998BA] (AR v2)
Track 14 cannot be verified as accurate (confidence 8) [2EE435B6], AccurateRip returned [C2D5E3A3] (AR v2)
Track 15 cannot be verified as accurate (confidence 8) [5F094483], AccurateRip returned [4AAE720D] (AR v2)
Track 16 cannot be verified as accurate (confidence 8) [5F271219], AccurateRip returned [246AAB22] (AR v2)
No tracks could be verified as accurate
You may have a different pressing from the one(s) in the database
End of status report
==== Log checksum EB8AC3C0401A1ECC2E0E7802204E24D3686D699A2D21DB46DFA78E7511DF0E50 ====

Диск IV — NIFCCD 003.

Exact Audio Copy V1.0 beta 3 from 29. August 2011
EAC extraction logfile from 19. September 2014, 15:15
Nelson Goerner / Chopin - Ballades, 3 Nocturnes - Nelson Goerner
Used drive : TSSTcorpCDDVDW SH-222BB Adapter: 2 ID: 1
Read mode : Secure
Utilize accurate stream : Yes
Defeat audio cache : Yes
Make use of C2 pointers : No
Read offset correction : 6
Overread into Lead-In and Lead-Out : No
Fill up missing offset samples with silence : Yes
Delete leading and trailing silent blocks : No
Null samples used in CRC calculations : Yes
Used interface : Native Win32 interface for Win NT & 2000
Used output format : User Defined Encoder
Selected bitrate : 896 kBit/s
Quality : High
Add ID3 tag : No
Command line compressor : C:\Program Files\Exact Audio Copy\FLAC\FLAC.EXE
Additional command line options : -8 -V -T "TITLE=%title%" -T "ARTIST=%artist%" -T "ALBUMARTIST=%albumartist%" -T "ALBUM=%albumtitle%" -T "DATE=%year%" -T "TRACKNUMBER=%tracknr%" -T "TRACKTOTAL=%numtracks%" -T "GENRE=%genre%" -T "COMMENT=%comment%" -T "PERFORMER=%albuminterpret%" -T "COMPOSER=%composer%" %source% -o %dest%
TOC of the extracted CD
Track | Start | Length | Start sector | End sector
---------------------------------------------------------
1 | 0:00.00 | 8:45.40 | 0 | 39414
2 | 8:45.40 | 6:28.69 | 39415 | 68583
3 | 15:14.34 | 6:58.44 | 68584 | 99977
4 | 22:13.03 | 5:32.67 | 99978 | 124944
5 | 27:45.70 | 7:12.34 | 124945 | 157378
6 | 34:58.29 | 5:56.45 | 157379 | 184123
7 | 40:54.74 | 10:46.35 | 184124 | 232608
Range status and errors
Selected range
Filename G:\Ripped general\[7781] Chopin – Ballades, 3 Nocturnes – Nelson Goerner\Chopin - Ballades, 3 Nocturnes - Nelson Goerner.wav
Peak level 98.6 %
Extraction speed 5.1 X
Range quality 100.0 %
Test CRC 24ADFE2D
Copy CRC 24ADFE2D
Copy OK
No errors occurred
AccurateRip summary
Track 1 accurately ripped (confidence 12) [0BD7F805] (AR v2)
Track 2 accurately ripped (confidence 12) [D7708D73] (AR v2)
Track 3 accurately ripped (confidence 12) [0852FBE8] (AR v2)
Track 4 accurately ripped (confidence 12) [92E42FC8] (AR v2)
Track 5 accurately ripped (confidence 12) [2A477941] (AR v2)
Track 6 accurately ripped (confidence 12) [E90FBDD2] (AR v2)
Track 7 accurately ripped (confidence 12) [78CC13E8] (AR v2)
All tracks accurately ripped
End of status report
==== Log checksum AD2BDC476A84E741F752673FB9375E11F95F80B4F78187E268CB25DDB7224DCB ====

Диск V — NIFCCD 004.

Exact Audio Copy V1.0 beta 4 from 7. December 2014
EAC extraction logfile from 14. March 2015, 18:05
Dang Thai Son / Chopin - Piano Concertos - Dang Thai Son
Used drive : PLDS DVD-RW DA8A5SH Adapter: 1 ID: 0
Read mode : Secure
Utilize accurate stream : Yes
Defeat audio cache : Yes
Make use of C2 pointers : No
Read offset correction : 6
Overread into Lead-In and Lead-Out : No
Fill up missing offset samples with silence : Yes
Delete leading and trailing silent blocks : No
Null samples used in CRC calculations : Yes
Used interface : Native Win32 interface for Win NT & 2000
Used output format : User Defined Encoder
Selected bitrate : 1024 kBit/s
Quality : High
Add ID3 tag : No
Command line compressor : J:\EAC\Exact Audio Copy\Flac\flac.exe
Additional command line options : -8 -V -T "ARTIST=%artist%" -T "TITLE=%title%" -T "ALBUM=%albumtitle%" -T "DATE=%year%" -T "TRACKNUMBER=%tracknr%" -T "GENRE=%genre%" -T "PERFORMER=%albuminterpret%" -T "COMPOSER=%composer%" %haslyrics%--tag-from-file=LYRICS="%lyricsfile%"%haslyrics% -T "ALBUMARTIST=%albumartist%" -T "DISCNUMBER=%cdnumber%" -T "TOTALDISCS=%totalcds%" -T "TOTALTRACKS=%numtracks%" -T "COMMENT=%comment%" %source% -o %dest%
TOC of the extracted CD
Track | Start | Length | Start sector | End sector
---------------------------------------------------------
1 | 0:00.00 | 20:29.05 | 0 | 92179
2 | 20:29.05 | 10:01.21 | 92180 | 137275
3 | 30:30.26 | 10:19.43 | 137276 | 183743
4 | 40:49.69 | 14:30.52 | 183744 | 249045
5 | 55:20.46 | 9:00.64 | 249046 | 289609
6 | 64:21.35 | 8:47.34 | 289610 | 329168
Range status and errors
Selected range
Filename K:\Ripped\[7540] Chopin – Piano Concertos – Dang Thai Son\Chopin - Piano Concertos - Dang Thai Son.wav
Peak level 98.7 %
Extraction speed 2.0 X
Range quality 100.0 %
Test CRC 09F773BB
Copy CRC 09F773BB
Copy OK
No errors occurred
AccurateRip summary
Track 1 accurately ripped (confidence 14) [4758FBD6] (AR v2)
Track 2 accurately ripped (confidence 14) [913A5E1A] (AR v2)
Track 3 accurately ripped (confidence 14) [B952F517] (AR v2)
Track 4 accurately ripped (confidence 14) [698234EE] (AR v2)
Track 5 accurately ripped (confidence 14) [97A2DD2C] (AR v2)
Track 6 accurately ripped (confidence 14) [93722BC7] (AR v2)
All tracks accurately ripped
End of status report
==== Log checksum 3D3A0C49B08C5133E444884B8AB4BA5FA99BAB8EF6A9441747C51490FAB12A87 ====

Диск VI — NIFCCD 005.

Exact Audio Copy V1.0 beta 3 from 29. August 2011
EAC extraction logfile from 16. December 2014, 17:48
Tatiana Shebanova / Chopin - Walzes, Barcarolle, Berceuse, Ecossaises - Tatiana Shebanova
Used drive : TSSTcorpCDDVDW SH-222BB Adapter: 2 ID: 1
Read mode : Secure
Utilize accurate stream : Yes
Defeat audio cache : Yes
Make use of C2 pointers : No
Read offset correction : 6
Overread into Lead-In and Lead-Out : No
Fill up missing offset samples with silence : Yes
Delete leading and trailing silent blocks : No
Null samples used in CRC calculations : Yes
Used interface : Native Win32 interface for Win NT & 2000
Used output format : User Defined Encoder
Selected bitrate : 896 kBit/s
Quality : High
Add ID3 tag : No
Command line compressor : C:\Program Files\Exact Audio Copy\FLAC\FLAC.EXE
Additional command line options : -8 -V -T "TITLE=%title%" -T "ARTIST=%artist%" -T "ALBUMARTIST=%albumartist%" -T "ALBUM=%albumtitle%" -T "DATE=%year%" -T "TRACKNUMBER=%tracknr%" -T "TRACKTOTAL=%numtracks%" -T "GENRE=%genre%" -T "COMMENT=%comment%" -T "PERFORMER=%albuminterpret%" -T "COMPOSER=%composer%" %source% -o %dest%
TOC of the extracted CD
Track | Start | Length | Start sector | End sector
---------------------------------------------------------
1 | 0:00.00 | 5:44.04 | 0 | 25803
2 | 5:44.04 | 6:06.61 | 25804 | 53314
3 | 11:50.65 | 6:39.64 | 53315 | 83303
4 | 18:30.54 | 2:25.44 | 83304 | 94222
5 | 20:56.23 | 4:08.28 | 94223 | 112850
6 | 25:04.51 | 1:54.06 | 112851 | 121406
7 | 26:58.57 | 4:21.20 | 121407 | 141001
8 | 31:20.02 | 3:35.24 | 141002 | 157150
9 | 34:55.26 | 4:25.44 | 157151 | 177069
10 | 39:20.70 | 4:09.52 | 177070 | 195796
11 | 43:30.47 | 2:20.26 | 195797 | 206322
12 | 45:50.73 | 3:09.26 | 206323 | 220523
13 | 49:00.24 | 3:57.39 | 220524 | 238337
14 | 52:57.63 | 3:10.50 | 238338 | 252637
15 | 56:08.38 | 0:59.25 | 252638 | 257087
16 | 57:07.63 | 0:36.07 | 257088 | 259794
17 | 57:43.70 | 0:53.64 | 259795 | 263833
18 | 58:37.59 | 9:36.39 | 263834 | 307072
19 | 68:14.23 | 5:25.70 | 307073 | 331517
Range status and errors
Selected range
Filename G:\Ripped general\[7600] Chopin - Walzes, Barcarolle, Berceuse, Ecossaises – Tatiana Shebanova\Chopin - Walzes, Barcarolle, Berceuse, Ecossaises - Tatiana Shebanova.wav
Peak level 90.6 %
Extraction speed 6.7 X
Range quality 99.9 %
Test CRC 33340F74
Copy CRC 33340F74
Copy OK
No errors occurred
AccurateRip summary
Track 1 accurately ripped (confidence 9) [1608B639] (AR v2)
Track 2 accurately ripped (confidence 9) [FF1D100A] (AR v2)
Track 3 accurately ripped (confidence 9) [8ABA1704] (AR v2)
Track 4 accurately ripped (confidence 9) [D2FEA156] (AR v2)
Track 5 accurately ripped (confidence 9) [0FD57940] (AR v2)
Track 6 accurately ripped (confidence 9) [C4BE2090] (AR v2)
Track 7 accurately ripped (confidence 9) [A83A1BAB] (AR v2)
Track 8 accurately ripped (confidence 9) [755BA398] (AR v2)
Track 9 accurately ripped (confidence 9) [0837361A] (AR v2)
Track 10 accurately ripped (confidence 9) [65D878DE] (AR v2)
Track 11 accurately ripped (confidence 9) [B1BAD9DA] (AR v2)
Track 12 accurately ripped (confidence 9) [3A3663D8] (AR v2)
Track 13 accurately ripped (confidence 9) [93783A81] (AR v2)
Track 14 accurately ripped (confidence 9) [095ED124] (AR v2)
Track 15 accurately ripped (confidence 9) [0B2F0573] (AR v2)
Track 16 accurately ripped (confidence 9) [28F0815E] (AR v2)
Track 17 accurately ripped (confidence 9) [75850B5C] (AR v2)
Track 18 accurately ripped (confidence 9) [EA6E0B98] (AR v2)
Track 19 accurately ripped (confidence 9) [F0DAC6FB] (AR v2)
All tracks accurately ripped
End of status report
==== Log checksum 340C7B56F67F910A481E2CD68F194F2F936BAC35FB4C9063F61831D3563CF812 ====

Диск VII — NIFCCD 006.

Exact Audio Copy V1.0 beta 3 from 29. August 2011
EAC extraction logfile from 14. October 2014, 16:19
Wojciech Switala / Chopin - 24 Preludes op.28, Andante spianato et Grande Polonaise - Wojciech Switla
Used drive : TSSTcorpCDDVDW SH-222BB Adapter: 2 ID: 1
Read mode : Secure
Utilize accurate stream : Yes
Defeat audio cache : Yes
Make use of C2 pointers : No
Read offset correction : 6
Overread into Lead-In and Lead-Out : No
Fill up missing offset samples with silence : Yes
Delete leading and trailing silent blocks : No
Null samples used in CRC calculations : Yes
Used interface : Native Win32 interface for Win NT & 2000
Used output format : User Defined Encoder
Selected bitrate : 896 kBit/s
Quality : High
Add ID3 tag : No
Command line compressor : C:\Program Files\Exact Audio Copy\FLAC\FLAC.EXE
Additional command line options : -8 -V -T "TITLE=%title%" -T "ARTIST=%artist%" -T "ALBUMARTIST=%albumartist%" -T "ALBUM=%albumtitle%" -T "DATE=%year%" -T "TRACKNUMBER=%tracknr%" -T "TRACKTOTAL=%numtracks%" -T "GENRE=%genre%" -T "COMMENT=%comment%" -T "PERFORMER=%albuminterpret%" -T "COMPOSER=%composer%" %source% -o %dest%
TOC of the extracted CD
Track | Start | Length | Start sector | End sector
---------------------------------------------------------
1 | 0:00.00 | 0:45.10 | 0 | 3384
2 | 0:45.10 | 2:37.64 | 3385 | 15223
3 | 3:22.74 | 1:02.50 | 15224 | 19923
4 | 4:25.49 | 2:05.24 | 19924 | 29322
5 | 6:30.73 | 0:37.63 | 29323 | 32160
6 | 7:08.61 | 1:52.19 | 32161 | 40579
7 | 9:01.05 | 0:51.19 | 40580 | 44423
8 | 9:52.24 | 1:51.72 | 44424 | 52820
9 | 11:44.21 | 1:50.68 | 52821 | 61138
10 | 13:35.14 | 0:35.50 | 61139 | 63813
11 | 14:10.64 | 0:44.01 | 63814 | 67114
12 | 14:54.65 | 1:13.16 | 67115 | 72605
13 | 16:08.06 | 3:16.63 | 72606 | 87368
14 | 19:24.69 | 0:29.64 | 87369 | 89607
15 | 19:54.58 | 5:53.57 | 89608 | 116139
16 | 25:48.40 | 1:06.40 | 116140 | 121129
17 | 26:55.05 | 3:32.67 | 121130 | 137096
18 | 30:27.72 | 1:03.03 | 137097 | 141824
19 | 31:31.00 | 1:29.59 | 141825 | 148558
20 | 33:00.59 | 1:58.71 | 148559 | 157479
21 | 34:59.55 | 2:13.12 | 157480 | 167466
22 | 37:12.67 | 0:42.66 | 167467 | 170682
23 | 37:55.58 | 1:06.60 | 170683 | 175692
24 | 39:02.43 | 2:43.27 | 175693 | 187944
25 | 41:45.70 | 5:03.44 | 187945 | 210713
26 | 46:49.39 | 9:39.27 | 210714 | 254165
Range status and errors
Selected range
Filename G:\Ripped general\[7733] Chopin – 24 Preludes op.28, Andante spianato et Grande Polonaise – Wojciech Switla\Chopin - 24 Preludes op.28, Andante spianato et Grande Polonaise - Wojciech Switla.wav
Peak level 92.8 %
Extraction speed 6.3 X
Range quality 100.0 %
Test CRC FF31D95C
Copy CRC FF31D95C
Copy OK
No errors occurred
AccurateRip summary
Track 1 accurately ripped (confidence 8) [476A1928] (AR v2)
Track 2 accurately ripped (confidence 8) [1B49B8B8] (AR v2)
Track 3 accurately ripped (confidence 8) [BDCFD2F6] (AR v2)
Track 4 accurately ripped (confidence 8) [18B7A47D] (AR v2)
Track 5 accurately ripped (confidence 8) [F78D6B1C] (AR v2)
Track 6 accurately ripped (confidence 8) [E9B5DC90] (AR v2)
Track 7 accurately ripped (confidence 8) [6F62F836] (AR v2)
Track 8 accurately ripped (confidence 8) [E0F69A79] (AR v2)
Track 9 accurately ripped (confidence 8) [1862E72A] (AR v2)
Track 10 accurately ripped (confidence 8) [4BF939A6] (AR v2)
Track 11 accurately ripped (confidence 8) [2EF54C31] (AR v2)
Track 12 accurately ripped (confidence 8) [714567D8] (AR v2)
Track 13 accurately ripped (confidence 8) [0B9AEA09] (AR v2)
Track 14 accurately ripped (confidence 8) [A522EF7C] (AR v2)
Track 15 accurately ripped (confidence 8) [5540EC3C] (AR v2)
Track 16 accurately ripped (confidence 8) [3E4A70B6] (AR v2)
Track 17 accurately ripped (confidence 8) [0ECBC897] (AR v2)
Track 18 accurately ripped (confidence 8) [ECB9516B] (AR v2)
Track 19 accurately ripped (confidence 8) [12D8ABBB] (AR v2)
Track 20 accurately ripped (confidence 8) [CF621C34] (AR v2)
Track 21 accurately ripped (confidence 8) [A2266C8E] (AR v2)
Track 22 accurately ripped (confidence 8) [98B7AB18] (AR v2)
Track 23 accurately ripped (confidence 8) [70109C39] (AR v2)
Track 24 accurately ripped (confidence 8) [29193E7C] (AR v2)
Track 25 accurately ripped (confidence 8) [6AB9216B] (AR v2)
Track 26 accurately ripped (confidence 8) [D10BDC7D] (AR v2)
All tracks accurately ripped
End of status report
==== Log checksum 92BE091C8364303E1DBC4C983ED3B51F8F688F599F61B8265D8A68876656E544 ====

Диск VIII — NIFCCD 007.

Exact Audio Copy V1.0 beta 3 from 29. August 2011
EAC extraction logfile from 26. August 2014, 14:01
Tatiana Shebanova / Chopin - Etudes op.10 & op.25 - Tatiana Shebanova
Used drive : TSSTcorpCDDVDW SH-222BB Adapter: 2 ID: 1
Read mode : Secure
Utilize accurate stream : Yes
Defeat audio cache : Yes
Make use of C2 pointers : No
Read offset correction : 6
Overread into Lead-In and Lead-Out : No
Fill up missing offset samples with silence : Yes
Delete leading and trailing silent blocks : No
Null samples used in CRC calculations : Yes
Used interface : Native Win32 interface for Win NT & 2000
Used output format : User Defined Encoder
Selected bitrate : 896 kBit/s
Quality : High
Add ID3 tag : No
Command line compressor : C:\Program Files\Exact Audio Copy\FLAC\FLAC.EXE
Additional command line options : -8 -V -T "TITLE=%title%" -T "ARTIST=%artist%" -T "ALBUMARTIST=%albumartist%" -T "ALBUM=%albumtitle%" -T "DATE=%year%" -T "TRACKNUMBER=%tracknr%" -T "TRACKTOTAL=%numtracks%" -T "GENRE=%genre%" -T "COMMENT=%comment%" -T "PERFORMER=%albuminterpret%" -T "COMPOSER=%composer%" %source% -o %dest%
TOC of the extracted CD
Track | Start | Length | Start sector | End sector
---------------------------------------------------------
1 | 0:00.00 | 1:58.00 | 0 | 8849
2 | 1:58.00 | 1:27.23 | 8850 | 15397
3 | 3:25.23 | 4:46.43 | 15398 | 36890
4 | 8:11.66 | 1:59.38 | 36891 | 45853
5 | 10:11.29 | 1:41.49 | 45854 | 53477
6 | 11:53.03 | 4:30.54 | 53478 | 73781
7 | 16:23.57 | 1:31.00 | 73782 | 80606
8 | 17:54.57 | 2:14.52 | 80607 | 90708
9 | 20:09.34 | 2:13.55 | 90709 | 100738
10 | 22:23.14 | 2:23.72 | 100739 | 111535
11 | 24:47.11 | 2:49.28 | 111536 | 124238
12 | 27:36.39 | 2:34.02 | 124239 | 135790
13 | 30:10.41 | 2:40.43 | 135791 | 147833
14 | 32:51.09 | 1:33.14 | 147834 | 154822
15 | 34:24.23 | 1:41.18 | 154823 | 162415
16 | 36:05.41 | 1:32.43 | 162416 | 169358
17 | 37:38.09 | 3:41.16 | 169359 | 185949
18 | 41:19.25 | 2:05.60 | 185950 | 195384
19 | 43:25.10 | 6:18.71 | 195385 | 223805
20 | 49:44.06 | 1:16.06 | 223806 | 229511
21 | 51:00.12 | 0:59.37 | 229512 | 233973
22 | 51:59.49 | 5:01.50 | 233974 | 256598
23 | 57:01.24 | 3:39.02 | 256599 | 273025
24 | 60:40.26 | 2:46.44 | 273026 | 285519
Range status and errors
Selected range
Filename G:\Ripped general\[7826] Chopin – Etudes op.10 & op.25 – Tatiana Shebanova\Chopin - Etudes op.10 & op.25 - Tatiana Shebanova.wav
Peak level 94.0 %
Extraction speed 6.6 X
Range quality 100.0 %
Test CRC 2FD11B90
Copy CRC 2FD11B90
Copy OK
No errors occurred
AccurateRip summary
Track 1 accurately ripped (confidence 11) [841BCC53] (AR v2)
Track 2 accurately ripped (confidence 11) [5F444E9D] (AR v2)
Track 3 accurately ripped (confidence 11) [8C4CB4DA] (AR v2)
Track 4 accurately ripped (confidence 11) [77ADEE9F] (AR v2)
Track 5 accurately ripped (confidence 11) [C57C44EB] (AR v2)
Track 6 accurately ripped (confidence 11) [4D1F1FAF] (AR v2)
Track 7 accurately ripped (confidence 11) [2020B814] (AR v2)
Track 8 accurately ripped (confidence 11) [A0F580B0] (AR v2)
Track 9 accurately ripped (confidence 11) [07E0D846] (AR v2)
Track 10 accurately ripped (confidence 11) [31AB0D8B] (AR v2)
Track 11 accurately ripped (confidence 11) [B019C5A4] (AR v2)
Track 12 accurately ripped (confidence 11) [D4469D59] (AR v2)
Track 13 accurately ripped (confidence 11) [05CF6CF9] (AR v2)
Track 14 accurately ripped (confidence 11) [6A7FFA03] (AR v2)
Track 15 accurately ripped (confidence 11) [0F851216] (AR v2)
Track 16 accurately ripped (confidence 11) [9EA19210] (AR v2)
Track 17 accurately ripped (confidence 11) [302CF2BC] (AR v2)
Track 18 accurately ripped (confidence 11) [E33269FF] (AR v2)
Track 19 accurately ripped (confidence 11) [8974F071] (AR v2)
Track 20 accurately ripped (confidence 11) [AB142CB2] (AR v2)
Track 21 accurately ripped (confidence 11) [9AA95DED] (AR v2)
Track 22 accurately ripped (confidence 11) [6292C296] (AR v2)
Track 23 accurately ripped (confidence 11) [0418815B] (AR v2)
Track 24 accurately ripped (confidence 11) [267FE1F5] (AR v2)
All tracks accurately ripped
End of status report
==== Log checksum 28B4036C13F1AFE3F3440395CE1F45A0027E3792F569FDECC0B751ECF171674F ====

Диск IX — NIFCCD 008.

Exact Audio Copy V1.0 beta 3 from 29. August 2011
EAC extraction logfile from 14. March 2015, 13:33
Janusz Olejniczak / Chopin - Sonata in B flat minor, Mazurkas - Janusz Olejniczak
Used drive : TSSTcorpCDDVDW TS-L633M Adapter: 1 ID: 0
Read mode : Secure
Utilize accurate stream : Yes
Defeat audio cache : Yes
Make use of C2 pointers : No
Read offset correction : 6
Overread into Lead-In and Lead-Out : No
Fill up missing offset samples with silence : Yes
Delete leading and trailing silent blocks : No
Null samples used in CRC calculations : Yes
Used interface : Native Win32 interface for Win NT & 2000
Used output format : User Defined Encoder
Selected bitrate : 320 kBit/s
Quality : High
Add ID3 tag : No
Command line compressor : C:\Program Files\Exact Audio Copy\Flac\flac.exe
Additional command line options : -8 -V -T "ARTIST=%artist%" -T "TITLE=%title%" -T "ALBUM=%albumtitle%" -T "DATE=%year%" -T "TRACKNUMBER=%tracknr%" -T "GENRE=%genre%" -T "PERFORMER=%albuminterpret%" -T "COMPOSER=%composer%" %haslyrics%--tag-from-file=LYRICS="%lyricsfile%"%haslyrics% -T "ALBUMARTIST=%albumartist%" -T "DISCNUMBER=%cdnumber%" -T "TOTALDISCS=%totalcds%" -T "TOTALTRACKS=%numtracks%" -T "COMMENT=%comment%" %source% -o %dest%
TOC of the extracted CD
Track | Start | Length | Start sector | End sector
---------------------------------------------------------
1 | 0:00.00 | 4:23.50 | 0 | 19774
2 | 4:23.50 | 4:12.65 | 19775 | 38739
3 | 8:36.40 | 2:54.45 | 38740 | 51834
4 | 11:31.10 | 2:21.67 | 51835 | 62476
5 | 13:53.02 | 2:24.38 | 62477 | 73314
6 | 16:17.40 | 7:38.17 | 73315 | 107681
7 | 23:55.57 | 7:13.36 | 107682 | 140192
8 | 31:09.18 | 9:47.09 | 140193 | 184226
9 | 40:56.27 | 1:30.50 | 184227 | 191026
10 | 42:27.02 | 4:43.64 | 191027 | 212315
11 | 47:10.66 | 10:46.32 | 212316 | 260797
12 | 57:57.23 | 2:42.70 | 260798 | 273017
13 | 60:40.18 | 3:45.23 | 273018 | 289915
14 | 64:25.41 | 4:15.06 | 289916 | 309046
Range status and errors
Selected range
Filename C:\Users\JS\Desktop\Chopin\Chopin - Sonata in B flat minor, Mazurkas - Janusz Olejniczak.wav
Peak level 95.4 %
Extraction speed 3.9 X
Range quality 100.0 %
Test CRC 8367A1F5
Copy CRC 8367A1F5
Copy OK
No errors occurred
AccurateRip summary
Track 1 accurately ripped (confidence 9) [A28BC69D] (AR v2)
Track 2 accurately ripped (confidence 9) [13B1D21B] (AR v2)
Track 3 accurately ripped (confidence 9) [D5870498] (AR v2)
Track 4 accurately ripped (confidence 9) [06A9A255] (AR v2)
Track 5 accurately ripped (confidence 9) [6E6B1F03] (AR v2)
Track 6 accurately ripped (confidence 9) [897D5E34] (AR v2)
Track 7 accurately ripped (confidence 9) [A58DA280] (AR v2)
Track 8 accurately ripped (confidence 8) [E70CE87D] (AR v2)
Track 9 accurately ripped (confidence 9) [C012DA47] (AR v2)
Track 10 accurately ripped (confidence 9) [24E7B297] (AR v2)
Track 11 accurately ripped (confidence 9) [FA7AEC92] (AR v2)
Track 12 accurately ripped (confidence 9) [58F0B103] (AR v2)
Track 13 accurately ripped (confidence 9) [6BDD66FD] (AR v2)
Track 14 accurately ripped (confidence 9) [A9B89A02] (AR v2)
All tracks accurately ripped
End of status report
==== Log checksum 4C7C4D9A49E9877B3FDE0443A43D9B3E80C3331224E12AC76820F1FE2821E792 ====

Диск X — NIFCCD 009.

Exact Audio Copy V1.0 beta 3 from 29. August 2011
EAC extraction logfile from 11. September 2014, 16:33
Nelson Goerner / Chopin - Works for Piano and Orchestra - Nelson Goerner
Used drive : TSSTcorpCDDVDW SH-222BB Adapter: 2 ID: 1
Read mode : Secure
Utilize accurate stream : Yes
Defeat audio cache : Yes
Make use of C2 pointers : No
Read offset correction : 6
Overread into Lead-In and Lead-Out : No
Fill up missing offset samples with silence : Yes
Delete leading and trailing silent blocks : No
Null samples used in CRC calculations : Yes
Used interface : Native Win32 interface for Win NT & 2000
Used output format : User Defined Encoder
Selected bitrate : 896 kBit/s
Quality : High
Add ID3 tag : No
Command line compressor : C:\Program Files\Exact Audio Copy\FLAC\FLAC.EXE
Additional command line options : -8 -V -T "TITLE=%title%" -T "ARTIST=%artist%" -T "ALBUMARTIST=%albumartist%" -T "ALBUM=%albumtitle%" -T "DATE=%year%" -T "TRACKNUMBER=%tracknr%" -T "TRACKTOTAL=%numtracks%" -T "GENRE=%genre%" -T "COMMENT=%comment%" -T "PERFORMER=%albuminterpret%" -T "COMPOSER=%composer%" %source% -o %dest%
TOC of the extracted CD
Track | Start | Length | Start sector | End sector
---------------------------------------------------------
1 | 0:00.00 | 14:05.17 | 0 | 63391
2 | 14:05.17 | 4:43.24 | 63392 | 84640
3 | 18:48.41 | 1:25.09 | 84641 | 91024
4 | 20:13.50 | 1:02.25 | 91025 | 95699
5 | 21:16.00 | 0:58.35 | 95700 | 100084
6 | 22:14.35 | 1:25.03 | 100085 | 106462
7 | 23:39.38 | 1:10.34 | 106463 | 111746
8 | 24:49.72 | 3:23.15 | 111747 | 126986
9 | 28:13.12 | 3:32.21 | 126987 | 142907
10 | 31:45.33 | 14:27.31 | 142908 | 207963
11 | 46:12.64 | 4:55.10 | 207964 | 230098
12 | 51:07.74 | 9:02.36 | 230099 | 270784
13 | 60:10.35 | 0:48.25 | 270785 | 274409
Range status and errors
Selected range
Filename G:\Ripped general\[7790] Chopin – Works for Piano and Orchestra – Nelson Goerner\Chopin - Works for Piano and Orchestra - Nelson Goerner.wav
Peak level 95.9 %
Extraction speed 6.6 X
Range quality 100.0 %
Test CRC C6ADA8D5
Copy CRC C6ADA8D5
Copy OK
No errors occurred
AccurateRip summary
Track 1 accurately ripped (confidence 3) [688F0A38] (AR v2)
Track 2 accurately ripped (confidence 3) [8FDDE235] (AR v2)
Track 3 accurately ripped (confidence 3) [971C1A9B] (AR v2)
Track 4 accurately ripped (confidence 3) [EB3A228A] (AR v2)
Track 5 accurately ripped (confidence 3) [43BF5923] (AR v2)
Track 6 accurately ripped (confidence 3) [2E25757B] (AR v2)
Track 7 accurately ripped (confidence 3) [B1C8A882] (AR v2)
Track 8 accurately ripped (confidence 3) [6577D34C] (AR v2)
Track 9 accurately ripped (confidence 3) [C046A768] (AR v2)
Track 10 accurately ripped (confidence 3) [DACB4B34] (AR v2)
Track 11 accurately ripped (confidence 3) [5296AA1A] (AR v2)
Track 12 accurately ripped (confidence 3) [13FC9061] (AR v2)
Track 13 accurately ripped (confidence 3) [72B25B81] (AR v2)
All tracks accurately ripped
End of status report
==== Log checksum 8498EEC0458EA01A4F6BBF6CF92073E136D70FFC1A1EA33508D483DDEE54ED31 ====

Диск XI — NIFCCD 010.

Exact Audio Copy V1.0 beta 3 from 29. August 2011
EAC extraction logfile from 22. October 2014, 15:58
Kevin Kenner / Chopin - 4 Impromptus, Scherzo, Polonaise, Nocturnes, Mazurkas - Kevin Kenner
Used drive : TSSTcorpCDDVDW SH-222BB Adapter: 2 ID: 1
Read mode : Secure
Utilize accurate stream : Yes
Defeat audio cache : Yes
Make use of C2 pointers : No
Read offset correction : 6
Overread into Lead-In and Lead-Out : No
Fill up missing offset samples with silence : Yes
Delete leading and trailing silent blocks : No
Null samples used in CRC calculations : Yes
Used interface : Native Win32 interface for Win NT & 2000
Used output format : User Defined Encoder
Selected bitrate : 896 kBit/s
Quality : High
Add ID3 tag : No
Command line compressor : C:\Program Files\Exact Audio Copy\FLAC\FLAC.EXE
Additional command line options : -8 -V -T "TITLE=%title%" -T "ARTIST=%artist%" -T "ALBUMARTIST=%albumartist%" -T "ALBUM=%albumtitle%" -T "DATE=%year%" -T "TRACKNUMBER=%tracknr%" -T "TRACKTOTAL=%numtracks%" -T "GENRE=%genre%" -T "COMMENT=%comment%" -T "PERFORMER=%albuminterpret%" -T "COMPOSER=%composer%" %source% -o %dest%
TOC of the extracted CD
Track | Start | Length | Start sector | End sector
---------------------------------------------------------
1 | 0:00.00 | 4:45.13 | 0 | 21387
2 | 4:45.13 | 5:35.39 | 21388 | 46551
3 | 10:20.52 | 7:45.27 | 46552 | 81453
4 | 18:06.04 | 5:31.01 | 81454 | 106279
5 | 23:37.05 | 5:06.01 | 106280 | 129230
6 | 28:43.06 | 5:42.52 | 129231 | 154932
7 | 34:25.58 | 3:47.60 | 154933 | 172017
8 | 38:13.43 | 7:21.66 | 172018 | 205158
9 | 45:35.34 | 0:41.30 | 205159 | 208263
10 | 46:16.64 | 5:31.67 | 208264 | 233155
11 | 51:48.56 | 4:09.29 | 233156 | 251859
12 | 55:58.10 | 2:34.02 | 251860 | 263411
13 | 58:32.12 | 3:43.22 | 263412 | 280158
Range status and errors
Selected range
Filename G:\Ripped general\[7715] Chopin – 4 Impromptus, Scherzo, Polonaise, Nocturenes, Mazurkas – Kevin Kenner\Chopin - 4 Impromptus, Scherzo, Polonaise, Nocturnes, Mazurkas - Kevin Kenner.wav
Peak level 77.9 %
Extraction speed 6.4 X
Range quality 100.0 %
Test CRC 6B4F562A
Copy CRC 6B4F562A
Copy OK
No errors occurred
AccurateRip summary
Track 1 accurately ripped (confidence 10) [8A3D9052] (AR v2)
Track 2 accurately ripped (confidence 10) [C991767F] (AR v2)
Track 3 accurately ripped (confidence 10) [9F6C67DC] (AR v2)
Track 4 accurately ripped (confidence 10) [6163BD27] (AR v2)
Track 5 accurately ripped (confidence 10) [7D5305BB] (AR v2)
Track 6 accurately ripped (confidence 10) [D2D6CB7C] (AR v2)
Track 7 accurately ripped (confidence 10) [6C7C58E9] (AR v2)
Track 8 accurately ripped (confidence 10) [07E13FD9] (AR v2)
Track 9 accurately ripped (confidence 10) [4D4C95D7] (AR v2)
Track 10 accurately ripped (confidence 10) [FA12ABE0] (AR v2)
Track 11 accurately ripped (confidence 10) [1C9A03DD] (AR v2)
Track 12 accurately ripped (confidence 10) [99F15519] (AR v2)
Track 13 accurately ripped (confidence 10) [63C928BE] (AR v2)
All tracks accurately ripped
End of status report
==== Log checksum 4F71D1D110CA604B745E338F90F3477EBF15C021966847E9F5290FFBB7AA2F08 ====

Диск XII — NIFCCD 011.

Exact Audio Copy V1.0 beta 3 from 29. August 2011
EAC extraction logfile from 25. December 2014, 18:37
Janusz Olejniczak / Chopin - Polonaises, Nocturnes, Mazurkas - Janusz Olejniczak
Used drive : TSSTcorpCDDVDW SH-222BB Adapter: 2 ID: 1
Read mode : Secure
Utilize accurate stream : Yes
Defeat audio cache : Yes
Make use of C2 pointers : No
Read offset correction : 6
Overread into Lead-In and Lead-Out : No
Fill up missing offset samples with silence : Yes
Delete leading and trailing silent blocks : No
Null samples used in CRC calculations : Yes
Used interface : Native Win32 interface for Win NT & 2000
Used output format : User Defined Encoder
Selected bitrate : 896 kBit/s
Quality : High
Add ID3 tag : No
Command line compressor : C:\Program Files\Exact Audio Copy\FLAC\FLAC.EXE
Additional command line options : -8 -V -T "TITLE=%title%" -T "ARTIST=%artist%" -T "ALBUMARTIST=%albumartist%" -T "ALBUM=%albumtitle%" -T "DATE=%year%" -T "TRACKNUMBER=%tracknr%" -T "TRACKTOTAL=%numtracks%" -T "GENRE=%genre%" -T "COMMENT=%comment%" -T "PERFORMER=%albuminterpret%" -T "COMPOSER=%composer%" %source% -o %dest%
TOC of the extracted CD
Track | Start | Length | Start sector | End sector
---------------------------------------------------------
1 | 0:00.00 | 7:07.72 | 0 | 32096
2 | 7:07.72 | 12:06.20 | 32097 | 86566
3 | 19:14.17 | 7:53.58 | 86567 | 122099
4 | 27:08.00 | 5:31.52 | 122100 | 146976
5 | 32:39.52 | 1:27.39 | 146977 | 153540
6 | 34:07.16 | 5:46.18 | 153541 | 179508
7 | 39:53.34 | 6:21.19 | 179509 | 208102
8 | 46:14.53 | 3:50.57 | 208103 | 225409
9 | 50:05.35 | 1:41.54 | 225410 | 233038
10 | 51:47.14 | 7:19.65 | 233039 | 266028
11 | 59:07.04 | 3:04.55 | 266029 | 279883
Range status and errors
Selected range
Filename G:\Ripped general\[7590] Chopin - Polonaises, Nocturnes, Mazurkas - Janusz Olejniczak\Chopin - Polonaises, Nocturnes, Mazurkas - Janusz Olejniczak.wav
Peak level 88.4 %
Extraction speed 5.1 X
Range quality 100.0 %
Test CRC A6D12664
Copy CRC A6D12664
Copy OK
No errors occurred
AccurateRip summary
Track 1 accurately ripped (confidence 7) [2380BF0E] (AR v2)
Track 2 accurately ripped (confidence 6) [A41CB51F] (AR v2)
Track 3 accurately ripped (confidence 7) [D7EE73F5] (AR v2)
Track 4 accurately ripped (confidence 7) [09D76980] (AR v2)
Track 5 accurately ripped (confidence 7) [2B816D47] (AR v2)
Track 6 accurately ripped (confidence 7) [329BE593] (AR v2)
Track 7 accurately ripped (confidence 7) [05227665] (AR v2)
Track 8 accurately ripped (confidence 7) [A45A8C3E] (AR v2)
Track 9 accurately ripped (confidence 7) [A9D246BB] (AR v2)
Track 10 accurately ripped (confidence 7) [EAFD89E2] (AR v2)
Track 11 accurately ripped (confidence 7) [A1794D52] (AR v2)
All tracks accurately ripped
End of status report
==== Log checksum 99ECA35A3526173F376B1820761CEE04A2DABF8AA44BC1548B2AC4E52E5B2510 ====

Диск XIII — NIFCCD 012.

Exact Audio Copy V1.0 beta 4 from 7. December 2014
EAC extraction logfile from 15. January 2015, 18:14
Dina Yoffe / Chopin - 2 Scherzi, Nocturnes, Mazurkas - Dina Yoffe
Used drive : TSSTcorpCDDVDW SH-222BB Adapter: 1 ID: 0
Read mode : Secure
Utilize accurate stream : Yes
Defeat audio cache : Yes
Make use of C2 pointers : Yes
Read offset correction : 6
Overread into Lead-In and Lead-Out : No
Fill up missing offset samples with silence : Yes
Delete leading and trailing silent blocks : No
Null samples used in CRC calculations : Yes
Used interface : Native Win32 interface for Win NT & 2000
Used output format : User Defined Encoder
Selected bitrate : 896 kBit/s
Quality : High
Add ID3 tag : No
Command line compressor : F:\EAC\Exact Audio Copy\Flac\flac.exe
Additional command line options : -8 -V -T "TITLE=%title%" -T "ARTIST=%artist%" -T "ALBUMARTIST=%albumartist%" -T "ALBUM=%albumtitle%" -T "DATE=%year%" -T "TRACKNUMBER=%tracknr%" -T "TRACKTOTAL=%numtracks%" -T "GENRE=%genre%" -T "COMMENT=%comment%" -T "PERFORMER=%albuminterpret%" -T "COMPOSER=%composer%" %source% -o %dest%
TOC of the extracted CD
Track | Start | Length | Start sector | End sector
---------------------------------------------------------
1 | 0:00.00 | 5:00.28 | 0 | 22527
2 | 5:00.28 | 11:01.37 | 22528 | 72139
3 | 16:01.65 | 5:16.11 | 72140 | 95850
4 | 21:18.01 | 1:59.62 | 95851 | 104837
5 | 23:17.63 | 4:58.28 | 104838 | 127215
6 | 28:16.16 | 1:34.30 | 127216 | 134295
7 | 29:50.46 | 5:02.40 | 134296 | 156985
8 | 34:53.11 | 9:19.27 | 156986 | 198937
9 | 44:12.38 | 3:23.68 | 198938 | 214230
10 | 47:36.31 | 2:28.24 | 214231 | 225354
11 | 50:04.55 | 2:54.09 | 225355 | 238413
12 | 52:58.64 | 3:33.36 | 238414 | 254424
13 | 56:32.25 | 6:03.34 | 254425 | 281683
14 | 62:35.59 | 12:36.71 | 281684 | 338454
Range status and errors
Selected range
Filename G:\Ripped general\[7570] Chopin – 2 Scherzi, Nocturnes, Mazurkas – Dina Yoffe\Chopin - 2 Scherzi, Nocturnes, Mazurkas - Dina Yoffe.wav
Peak level 91.4 %
Extraction speed 9.6 X
Range quality 100.0 %
Test CRC CC3629CD
Copy CRC CC3629CD
Copy OK
No errors occurred
AccurateRip summary
Track 1 accurately ripped (confidence 12) [1C457E31] (AR v2)
Track 2 accurately ripped (confidence 12) [9FA17FC6] (AR v2)
Track 3 accurately ripped (confidence 12) [7C22A863] (AR v2)
Track 4 accurately ripped (confidence 12) [1CD7B01B] (AR v2)
Track 5 accurately ripped (confidence 12) [12B5006D] (AR v2)
Track 6 accurately ripped (confidence 12) [39A08D72] (AR v2)
Track 7 accurately ripped (confidence 12) [427D9435] (AR v2)
Track 8 accurately ripped (confidence 12) [7D290A64] (AR v2)
Track 9 accurately ripped (confidence 12) [B76035DB] (AR v2)
Track 10 accurately ripped (confidence 12) [7944DD2E] (AR v2)
Track 11 accurately ripped (confidence 12) [2BD55C78] (AR v2)
Track 12 accurately ripped (confidence 12) [F411424A] (AR v2)
Track 13 accurately ripped (confidence 12) [0636D632] (AR v2)
Track 14 accurately ripped (confidence 12) [3EE2C2A4] (AR v2)
All tracks accurately ripped
End of status report
==== Log checksum 7630447B8DCB69C672948DFD47EBF03A0D5F350C8032CA66C56884C3209BABA7 ====

Диск XIV — NIFCCD 013.

Exact Audio Copy V1.0 beta 4 from 7. December 2014
EAC extraction logfile from 14. March 2015, 14:17
Various Artists / Chopin - Chamber Music - Various Artists
Used drive : PLDS DVD-RW DA8A5SH Adapter: 1 ID: 0
Read mode : Secure
Utilize accurate stream : Yes
Defeat audio cache : Yes
Make use of C2 pointers : No
Read offset correction : 6
Overread into Lead-In and Lead-Out : No
Fill up missing offset samples with silence : Yes
Delete leading and trailing silent blocks : No
Null samples used in CRC calculations : Yes
Used interface : Native Win32 interface for Win NT & 2000
Used output format : User Defined Encoder
Selected bitrate : 1024 kBit/s
Quality : High
Add ID3 tag : No
Command line compressor : J:\EAC\Exact Audio Copy\Flac\flac.exe
Additional command line options : -8 -V -T "ARTIST=%artist%" -T "TITLE=%title%" -T "ALBUM=%albumtitle%" -T "DATE=%year%" -T "TRACKNUMBER=%tracknr%" -T "GENRE=%genre%" -T "PERFORMER=%albuminterpret%" -T "COMPOSER=%composer%" %haslyrics%--tag-from-file=LYRICS="%lyricsfile%"%haslyrics% -T "ALBUMARTIST=%albumartist%" -T "DISCNUMBER=%cdnumber%" -T "TOTALDISCS=%totalcds%" -T "TOTALTRACKS=%numtracks%" -T "COMMENT=%comment%" %source% -o %dest%
TOC of the extracted CD
Track | Start | Length | Start sector | End sector
---------------------------------------------------------
1 | 0:00.00 | 12:15.71 | 0 | 55195
2 | 12:15.71 | 5:05.63 | 55196 | 78133
3 | 17:21.59 | 4:03.57 | 78134 | 96415
4 | 21:25.41 | 7:07.61 | 96416 | 128501
5 | 28:33.27 | 9:34.51 | 128502 | 171602
6 | 38:08.03 | 13:53.41 | 171603 | 234118
7 | 52:01.44 | 8:32.16 | 234119 | 272534
8 | 60:33.60 | 6:12.25 | 272535 | 300459
9 | 66:46.10 | 6:02.42 | 300460 | 327651
10 | 72:48.52 | 5:55.13 | 327652 | 354289
Range status and errors
Selected range
Filename K:\Ripped\[7544] Chopin – Chamber Music – Various Artists\Chopin - Chamber Music - Various Artists.wav
Peak level 86.8 %
Extraction speed 2.1 X
Range quality 99.9 %
Test CRC 2B9269F9
Copy CRC 2B9269F9
Copy OK
No errors occurred
AccurateRip summary
Track 1 accurately ripped (confidence 8) [0A6A3EDE] (AR v2)
Track 2 accurately ripped (confidence 8) [7B03DD77] (AR v2)
Track 3 accurately ripped (confidence 8) [F49FB2B8] (AR v2)
Track 4 accurately ripped (confidence 8) [1580C15D] (AR v2)
Track 5 accurately ripped (confidence 8) [9E551624] (AR v2)
Track 6 accurately ripped (confidence 8) [4971240A] (AR v2)
Track 7 accurately ripped (confidence 8) [94A6E9C0] (AR v2)
Track 8 accurately ripped (confidence 8) [888759ED] (AR v2)
Track 9 accurately ripped (confidence 8) [9703EE29] (AR v2)
Track 10 accurately ripped (confidence 8) [E92E97FA] (AR v2)
All tracks accurately ripped
End of status report
==== Log checksum 8898413BC70FC2160C2D583D4A0064FBFD4F4F0E7E18E593D495E659D2934209 ====

Диск XV — NIFCCD 014.

Exact Audio Copy V1.0 beta 3 from 29. August 2011
EAC extraction logfile from 14. January 2015, 13:43
Nikolai Demidenko / Chopin - 2 Rondos, Allegro de concert, Wariacje B-dur, Berceuse - Demidenko
Used drive : TSSTcorpCDDVDW TS-L633M Adapter: 1 ID: 0
Read mode : Secure
Utilize accurate stream : Yes
Defeat audio cache : Yes
Make use of C2 pointers : No
Read offset correction : 6
Overread into Lead-In and Lead-Out : No
Fill up missing offset samples with silence : Yes
Delete leading and trailing silent blocks : No
Null samples used in CRC calculations : Yes
Used interface : Native Win32 interface for Win NT & 2000
Used output format : User Defined Encoder
Selected bitrate : 320 kBit/s
Quality : High
Add ID3 tag : No
Command line compressor : C:\Program Files\Exact Audio Copy\Flac\flac.exe
Additional command line options : -8 -V -T "TITLE=%title%" -T "ARTIST=%artist%" -T "ALBUMARTIST=%albumartist%" -T "ALBUM=%albumtitle%" -T "DATE=%year%" -T "TRACKNUMBER=%tracknr%" -T "TRACKTOTAL=%numtracks%" -T "GENRE=%genre%" -T "COMMENT=%comment%" -T "PERFORMER=%albuminterpret%" -T "COMPOSER=%composer%" %source% -o %dest%
TOC of the extracted CD
Track | Start | Length | Start sector | End sector
---------------------------------------------------------
1 | 0:00.00 | 4:42.29 | 0 | 21178
2 | 4:42.29 | 5:15.03 | 21179 | 44806
3 | 9:57.32 | 3:11.15 | 44807 | 59146
4 | 13:08.47 | 8:16.17 | 59147 | 96363
5 | 21:24.64 | 10:06.28 | 96364 | 141841
6 | 31:31.17 | 11:30.66 | 141842 | 193657
7 | 43:02.08 | 12:13.65 | 193658 | 248697
8 | 55:15.73 | 6:14.03 | 248698 | 276750
9 | 61:30.01 | 3:54.70 | 276751 | 294370
10 | 65:24.71 | 2:01.09 | 294371 | 303454
11 | 67:26.05 | 1:03.59 | 303455 | 308238
12 | 68:29.64 | 1:07.12 | 308239 | 313275
13 | 69:37.01 | 1:34.56 | 313276 | 320381
14 | 71:11.57 | 1:17.00 | 320382 | 326156
15 | 72:28.57 | 2:06.54 | 326157 | 335660
16 | 74:35.36 | 3:45.53 | 335661 | 352588
Range status and errors
Selected range
Filename C:\Users\JS\Desktop\Chopin\Chopin - 2 Rondos, Allegro de concert, Wariacje B-dur, Berceuse - Demidenko.wav
Peak level 91.6 %
Extraction speed 2.1 X
Range quality 100.0 %
Test CRC 2E9F7B1B
Copy CRC 2E9F7B1B
Copy OK
No errors occurred
AccurateRip summary
Track 1 accurately ripped (confidence 9) [B7198D21] (AR v2)
Track 2 accurately ripped (confidence 9) [9FFEA768] (AR v2)
Track 3 accurately ripped (confidence 9) [A977617E] (AR v2)
Track 4 accurately ripped (confidence 9) [44DDE4CC] (AR v2)
Track 5 accurately ripped (confidence 9) [A06A21A0] (AR v2)
Track 6 accurately ripped (confidence 9) [6E7539F8] (AR v2)
Track 7 accurately ripped (confidence 9) [DB0A1DAA] (AR v2)
Track 8 accurately ripped (confidence 9) [86D14F0A] (AR v2)
Track 9 accurately ripped (confidence 9) [7D488A53] (AR v2)
Track 10 accurately ripped (confidence 9) [10820801] (AR v2)
Track 11 accurately ripped (confidence 9) [0ED07935] (AR v2)
Track 12 accurately ripped (confidence 9) [0E48A911] (AR v2)
Track 13 accurately ripped (confidence 9) [971C7C92] (AR v2)
Track 14 accurately ripped (confidence 9) [BBBDE869] (AR v2)
Track 15 accurately ripped (confidence 9) [7061C241] (AR v2)
Track 16 accurately ripped (confidence 9) [3789CF68] (AR v2)
All tracks accurately ripped
End of status report
==== Log checksum C6165923CC81DAF37CBDFCE761A2A823492493C187AAFDE66B6351F0979B6883 ====
Остальные логи и индексные карты см. в постах ниже.-Продолжение серии «The Real Chopin»:
[NIFCCD 029] Два фортепианных концерта (Юлианна Авдеева, Frans Brüggen).
[teatrix.ru].t21309.torrent 
Торрент: Зарегистрирован [ 2016-03-20 12:00 ] · 8D03B3EF21BDA5DA604D4F895A0AFE5066F55F56

Скачать .torrent

Скачать

83 KB

Статус: проверено
Скачан: 1 раз
Размер: 4.82 GB
terms.php



Быстрый ответ

Имя:

      
Для отправки сообщений необходимо включить JavaScript
Показать сообщения:    

Текущее время: 11-Дек 05:19

Часовой пояс: UTC + 3


Вы можете начинать темы
Вы можете отвечать на сообщения
Вы не можете редактировать свои сообщения
Вы не можете удалять свои сообщения
Вы не можете голосовать в опросах
Вы не можете прикреплять файлы к сообщениям
Вы можете скачивать файлы