(Baroque Opera) Rebel-Francoeur • Zelindor, Roi des Sylphes • Le Trophee Suite (Fouchecourt, Hong, Murphy, Grant, Sharp - Opera Lafayette Orchestra & Chorus, Brown) - 2009, APE (image+.cue) lossless


 

[Цитировать]

Francois Rebel & Francois Francoeur • Zelindor, Roi des Sylphes • Le Trophee Suite
First performed at Versailles in 1745, the opera ballet Zélindor is a delightful rococo pastorale which found favour with Louis XV’s mistress, Madame de Pompadour, no doubt because its story about a king who loves a commoner reflected her own situation.
Opera Lafayette’s 2007 revival was hailed as “brilliant” by The Washington Post, which praised the soloists, headed by Jean-Paul Fouchécourt, and chamber chorus who “sang with a gusto matched by the orchestra’s rhythmic pungency”.
This is the work’s world première recording with full orchestra and chorus.
Жанр: Baroque Opera
Страна-производитель диска: Germany
Год издания диска: 2009
Издатель (лейбл): Naxos
Номер по каталогу: 8.660224
Дата записи: 2007
Аудиокодек: APE
Тип рипа: image+.cue
Битрейт аудио: lossless
Продолжительность: 61'35
Источник: собственный рип
Наличие сканов в содержимом раздачи: да
Треклист / Исполнители:
Zelindor, roi des Sylphes
1. Scene 1: Ouverture
2. Scene 1: Un souverain Genie adore une mortelle! (Zulim, Zelindor)
3. Scene 2: Pourquoi me refuser le plaisir de vous voir (Zirphe) - Belle Zirphe, que ce qui peut vous plaire (Zelindor)
4. Scene 3: Prelude - Que vois - je (Zirphe)
5. Scene 3: Air pour Les Nymphes
6. Scene 3: Il faut que tont seconde (Chorus)
7. Scene 3: Air: Sur vos pas, par quel charme admirable (A Nymph)
8. Scene 3: Passepied
9. Scene 3: C'en est assez; Ah! Paraissez enfin (Zirphe, Zelindor)
10. Scene 4: Prelude pour les Genies elementaires
11. Scene 4: Air pour les Gnomes et Ondins
12. Scene 4: Air pour les Sylphes et Salamandres
13. Scene 4: Que dans les airs vos chants harmonieux (Zelindor, Chorus)
14. Scene 4: Air gai
15. Scene 4: Menuet I: Quel amant sous vos lois s'engage! (A Sylphid) - Menuet II: Vos destins changent leur cours (Chorus, A Sylphid)
16. Scene 4: Bourrees I - II - Reprise de l'air ga
Zélindor, roi des Sylphes - Jean-Paul Fouchécourt
Zirphé, une mortelle - Heidi Grant Murphy
Zulim, un Sylphe - William Sharp
Une Nymphe, une Sylphide - Ah Young Hong
Andrew Appel and Loretta O’Sullivan, ContinuoLe trophee Suite
17. I. Overture
18. II. Sarabande
19. III. Gavotte I - II
20. IV. Ariette: Ornez de fleurs vos tetes (La Muse)
21. V. Gavotte pour les Muses et les Plaisirs: Que de plaisirs enchanteurs (Le Genie)
22. VI. Viste - Prelude
23. VII. Air I - II
24. VIII. Fanfare
La Muse - Heidi Grant Murphy
Le Génie - Jean-Paul Fouchécourt
Music by François Rebel and François Francœur
Text by François-Augustin Paradis de Moncrif
The Opera Lafayette Orchestra
Ryan Brown, Conductor
Synopsis
Zélindor, roi des Sylphes (1745): A divertissement in one act
As Zélindor begins, Zulim chides the King of the Sylphes for loving a mortal. Zélindor then confesses to Zulim his fear that Zirphé may not love him in return. Zulim tries to convince Zélindor of Zirphé’s love. Zirphé enters, and Zélindor uses his magic to render himself and Zulim invisible. Zirphé sings of her love for Zélindor and her desire to see him: In a dream, she saw him flying through the air and turning the rocks and the trees into singing and dancing nymphs. She wishes the dream were true. Hearing her wish, Zélindor, still invisible, orders the dream to come true. The rocks and the trees of the park become nymphs who sing and dance to entertain Zirphé. Yet Zirphé still insists on seeing Zélindor. Zélindor explains that he must remain invisible lest she lose interest in him. She protests that she will always love him, but Zélindor warns her of Fate’s decree: once she sees Zélindor, she must either marry or reject him, and she will no longer be attractive to anyone else. Zirphé remains eager nonetheless, and Zélindor appears before her. On seeing him, Zirphé loves him even more and asks him never to disappear again. Zélindor tells of his joy in her love and admits that his warning was merely a ploy to test her love. They sing of their happiness together, and Zélindor calls on all the elements to celebrate his union with Zirphé in a final ballet.
Suite from Le Trophée (1745)
Ouverture • Sarabande • Gavottes 1 and 2 • Ariette (La Muse) • Gavotte pour les Muses et les Plaisirs (Le Génie) • Viste • Prélude • Airs 1 and 2 • Fanfare
In Le Trophée, the Muse of History calls upon her sisters the Muses to raise a trophy, decked with armour and flags, in honour of a “young, intrepid, happy and glorious king” who has “affixed to his standard Fate, Pleasures, Arts and Victory”. The Muse of History is joined by the Genius of France to ask that the King be always triumphant since his victories bring peace.

Лог создания рипа

Exact Audio Copy V1.0 beta 3 from 29. August 2011
EAC extraction logfile from 26. May 2015, 23:26
Rebel • Francœur / Zélindor, roi des Sylphesr • Suite from Le Trophée, Brown
Used drive : TSSTcorpCDDVDW SE-208AB Adapter: 1 ID: 0
Read mode : Secure
Utilize accurate stream : Yes
Defeat audio cache : Yes
Make use of C2 pointers : No
Read offset correction : 6
Overread into Lead-In and Lead-Out : No
Fill up missing offset samples with silence : Yes
Delete leading and trailing silent blocks : No
Null samples used in CRC calculations : Yes
Used interface : Native Win32 interface for Win NT & 2000
Used output format : Monkey's Audio Lossless Encoder
Selected bitrate : High Lossless Compression
Quality : High
Add ID3 tag : Yes
Command line compressor : C:\Program Files (x86)\Exact Audio Copy\MAC\MAC.exe
TOC of the extracted CD
Track | Start | Length | Start sector | End sector
---------------------------------------------------------
1 | 0:00.00 | 3:12.21 | 0 | 14420
2 | 3:12.21 | 6:56.60 | 14421 | 45680
3 | 10:09.06 | 5:23.27 | 45681 | 69932
4 | 15:32.33 | 0:56.53 | 69933 | 74185
5 | 16:29.11 | 1:32.70 | 74186 | 81155
6 | 18:02.06 | 1:36.24 | 81156 | 88379
7 | 19:38.30 | 2:51.06 | 88380 | 101210
8 | 22:29.36 | 1:54.58 | 101211 | 109818
9 | 24:24.19 | 7:49.21 | 109819 | 145014
10 | 32:13.40 | 1:28.15 | 145015 | 151629
11 | 33:41.55 | 1:09.55 | 151630 | 156859
12 | 34:51.35 | 1:26.32 | 156860 | 163341
13 | 36:17.67 | 2:00.19 | 163342 | 172360
14 | 38:18.11 | 1:10.67 | 172361 | 177677
15 | 39:29.03 | 5:04.03 | 177678 | 200480
16 | 44:33.06 | 2:40.37 | 200481 | 212517
17 | 47:13.43 | 2:57.17 | 212518 | 225809
18 | 50:10.60 | 1:22.16 | 225810 | 231975
19 | 51:33.01 | 1:57.37 | 231976 | 240787
20 | 53:30.38 | 2:52.38 | 240788 | 253725
21 | 56:23.01 | 2:08.01 | 253726 | 263326
22 | 58:31.02 | 0:44.19 | 263327 | 266645
23 | 59:15.21 | 0:59.54 | 266646 | 271124
24 | 60:15.00 | 1:19.00 | 271125 | 277049
Range status and errors
Selected range
Filename D:\EAC\Rebel • Francœur - Zélindor, roi des Sylphesr • Suite from Le Trophée, Brown.wav
Peak level 100.0 %
Extraction speed 4.6 X
Range quality 100.0 %
Test CRC 3AAB90E2
Copy CRC 3AAB90E2
Copy OK
No errors occurred
AccurateRip summary
Track 1 accurately ripped (confidence 2) [F4B03BE1] (AR v2)
Track 2 accurately ripped (confidence 2) [B57628D7] (AR v2)
Track 3 accurately ripped (confidence 2) [FB14E72F] (AR v2)
Track 4 accurately ripped (confidence 2) [C5969BA7] (AR v2)
Track 5 accurately ripped (confidence 2) [59EC2459] (AR v2)
Track 6 accurately ripped (confidence 2) [7FF51615] (AR v2)
Track 7 accurately ripped (confidence 2) [F9E05AD7] (AR v2)
Track 8 accurately ripped (confidence 2) [1288EAEE] (AR v2)
Track 9 accurately ripped (confidence 2) [E249AD0E] (AR v2)
Track 10 accurately ripped (confidence 2) [79062550] (AR v2)
Track 11 accurately ripped (confidence 2) [925C55D0] (AR v2)
Track 12 accurately ripped (confidence 2) [981D7DFA] (AR v2)
Track 13 accurately ripped (confidence 2) [D3AED59F] (AR v2)
Track 14 accurately ripped (confidence 2) [7BBC0382] (AR v2)
Track 15 accurately ripped (confidence 2) [B68907D9] (AR v2)
Track 16 accurately ripped (confidence 2) [8866E756] (AR v2)
Track 17 accurately ripped (confidence 2) [2F7CD2B0] (AR v2)
Track 18 accurately ripped (confidence 2) [38B08753] (AR v2)
Track 19 accurately ripped (confidence 2) [A3902944] (AR v2)
Track 20 accurately ripped (confidence 2) [E518B131] (AR v2)
Track 21 accurately ripped (confidence 2) [2C1E76B6] (AR v2)
Track 22 accurately ripped (confidence 2) [8C4C42B1] (AR v2)
Track 23 accurately ripped (confidence 2) [2FA9E9A9] (AR v2)
Track 24 accurately ripped (confidence 2) [6C1D132C] (AR v2)
All tracks accurately ripped
End of status report
---- CUETools DB Plugin V2.1.3
[CTDB TOCID: 02EZUIy35uZlOWm03H1jTe9OIjU-] found, Submit result: 02EZUIy35uZlOWm03H1jTe9OIjU- has been confirmed
[37317dad] (3/4) Accurately ripped
[3e1bf881] (1/4) No match
==== Log checksum A2F0D5EC5BE397B2CC21524A01911DE3ED21ACD3DFA598460E4D01C91033621A ====

Содержание индексной карты (.CUE)

REM GENRE Opera-Ballet
REM DATE 2009
REM DISCID 430E6E18
REM COMMENT "ExactAudioCopy v1.0b3"
PERFORMER "Rebel • Francœur"
TITLE "Zélindor, roi des Sylphesr • Suite from Le Trophée, Brown"
FILE "Rebel • Francœur - Zélindor, roi des Sylphesr • Suite from Le Trophée, Brown.ape" WAVE
TRACK 01 AUDIO
TITLE "Zélindor, roi des Sylphes: Ouverture"
PERFORMER "Rebel • Francœur"
ISRC HKI190909301
INDEX 01 00:00:00
TRACK 02 AUDIO
TITLE "Zélindor, roi des Sylphes: Scène 1. 'Un souverain Génie' (Zulim, Zélindor)"
PERFORMER "Rebel • Francœur"
ISRC HKI190909302
INDEX 01 03:12:21
TRACK 03 AUDIO
TITLE "Zélindor, roi des Sylphes: Scène 2. 'Pourquoi me refuser le plaisir de vous v..."
PERFORMER "Rebel • Francœur"
ISRC HKI190909303
INDEX 01 10:09:06
TRACK 04 AUDIO
TITLE "Zélindor, roi des Sylphes: Scène 3. Prélude / 'Que vois-je?' (Zirphé)"
PERFORMER "Rebel • Francœur"
ISRC HKI190909304
INDEX 01 15:32:33
TRACK 05 AUDIO
TITLE "Zélindor, roi des Sylphes: Scène 3. Air pour les Nymphes"
PERFORMER "Rebel • Francœur"
ISRC HKI190909305
INDEX 01 16:29:11
TRACK 06 AUDIO
TITLE "Zélindor, roi des Sylphes: Scène 3. 'Il faut que tout seconde' Chœur)"
PERFORMER "Rebel • Francœur"
ISRC HKI190909306
INDEX 01 18:02:06
TRACK 07 AUDIO
TITLE "Zélindor, roi des Sylphes: Scène 3. Air. 'Sur vos pas, par quel charme admira..."
PERFORMER "Rebel • Francœur"
ISRC HKI190909307
INDEX 01 19:38:30
TRACK 08 AUDIO
TITLE "Zélindor, roi des Sylphes: Scène 3. Passepied"
PERFORMER "Rebel • Francœur"
ISRC HKI190909308
INDEX 01 22:29:36
TRACK 09 AUDIO
TITLE "Zélindor, roi des Sylphes: Scène 3. 'C'en est assez' (Zirphé, Zélindor, Une N..."
PERFORMER "Rebel • Francœur"
ISRC HKI190909309
INDEX 01 24:24:19
TRACK 10 AUDIO
TITLE "Zélindor, roi des Sylphes: Scène 4. Prélude pour les Génies elementaires"
PERFORMER "Rebel • Francœur"
ISRC HKI190909310
INDEX 01 32:13:40
TRACK 11 AUDIO
TITLE "Zélindor, roi des Sylphes: Scène 4. Air pour les Gnomes et Ondins"
PERFORMER "Rebel • Francœur"
ISRC HKI190909311
INDEX 01 33:41:55
TRACK 12 AUDIO
TITLE "Zélindor, roi des Sylphes: Scène 4. Air pour les Sylphes et Salamandres"
PERFORMER "Rebel • Francœur"
ISRC HKI190909312
INDEX 01 34:51:35
TRACK 13 AUDIO
TITLE "Zélindor, roi des Sylphes: Scène 4. 'Que dans les airs' (Zélindor, Chœur)"
PERFORMER "Rebel • Francœur"
ISRC HKI190909313
INDEX 01 36:17:67
TRACK 14 AUDIO
TITLE "Zélindor, roi des Sylphes: Scène 4. Air gai"
PERFORMER "Rebel • Francœur"
ISRC HKI190909314
INDEX 01 38:18:11
TRACK 15 AUDIO
TITLE "Zélindor, roi des Sylphes: Scène 4. Menuet I / 'Quel amant sous vos lois s'en..."
PERFORMER "Rebel • Francœur"
ISRC HKI190909315
INDEX 01 39:29:03
TRACK 16 AUDIO
TITLE "Zélindor, roi des Sylphes: Scène 4. - Bourées I et II / Reprise de l'air gai"
PERFORMER "Rebel • Francœur"
ISRC HKI190909316
INDEX 01 44:33:06
TRACK 17 AUDIO
TITLE "Suite 'Le Trophée': Ouverture"
PERFORMER "Rebel • Francœur"
ISRC HKI190909317
INDEX 00 47:06:58
INDEX 01 47:13:43
TRACK 18 AUDIO
TITLE "Suite 'Le Trophée': Sarabande"
PERFORMER "Rebel • Francœur"
ISRC HKI190909318
INDEX 01 50:10:60
TRACK 19 AUDIO
TITLE "Suite 'Le Trophée': Gavottes I et II"
PERFORMER "Rebel • Francœur"
ISRC HKI190909319
INDEX 01 51:33:01
TRACK 20 AUDIO
TITLE "Suite 'Le Trophée': Ariette 'Ornez de fleurs vos têtes' (La Muse)"
PERFORMER "Rebel • Francœur"
ISRC HKI190909320
INDEX 01 53:30:38
TRACK 21 AUDIO
TITLE "Suite 'Le Trophée' - Gavotte pour les Muses et les Plaisirs (Le Génie)"
PERFORMER "Rebel • Francœur"
ISRC HKI190909321
INDEX 00 56:21:35
INDEX 01 56:23:01
TRACK 22 AUDIO
TITLE "Suite 'Le Trophée': Viste / Prélude"
PERFORMER "Rebel • Francœur"
ISRC HKI190909322
INDEX 01 58:31:02
TRACK 23 AUDIO
TITLE "Suite 'Le Trophée': Airs I et II"
PERFORMER "Rebel • Francœur"
ISRC HKI190909323
INDEX 01 59:15:21
TRACK 24 AUDIO
TITLE "Suite 'Le Trophée': Fanfare"
PERFORMER "Rebel • Francœur"
ISRC HKI190909324
INDEX 01 60:15:00



Показать сообщения:    

Текущее время: 03-Дек 18:42

Часовой пояс: UTC + 3


Вы не можете начинать темы
Вы не можете отвечать на сообщения
Вы не можете редактировать свои сообщения
Вы не можете удалять свои сообщения
Вы не можете голосовать в опросах
Вы не можете прикреплять файлы к сообщениям
Вы не можете скачивать файлы