Уильям Фолкнер / William Faulkner (Марк Ямпольский / Marc Jampolsky) [1995, документальный, TVRip]


Статистика раздачи [Обновить пиров]
Размер:  1.21 GB   |    Зарегистрирован:  8 месяцев 14 дней   |    Скачан:  0 раз

Полного источника не было: Никогда

 
   
 
 
 

[Цитировать]

Уильям Фолкнер / William Faulkner
Дата/Год выпуска: 1995
Страна: Франция
Жанр: документальный
Продолжительность: 00:43:02
Перевод: Одноголосый закадровый
Русские субтитры: нет
Оригинальная аудиодорожка: нет
Режиссер: Марк Ямпольский / Marc Jampolsky
Телеканал: Первый канал
Описание: 25 сентября 1897 года родился создатель вселенной, уместившейся на несуществующем клочке земли.
"Округ Йокнапатофа, штат Миссисипи. Площадь: 2400 квадратных миль. Население: белых - 6298, негров - 9313. Уильям Фолкнер – единственный хозяин и повелитель".
Он писал историю мира, полного страдания, насилия, шума и ярости. Он пытался ответить на вопрос: есть ли во всем этом хоть какой-нибудь смысл.
Он утверждал: "Моя цель, все мои помыслы устремлены к тому, чтобы итог и история моей жизни были выражены в одной фразе, представляющей собою некролог и эпитафию одновременно: он писал книги, и он умер".
В данном релизе представлена запись документального фильма "Уильям Фолкнер", показанного Первым каналом с озвучкой Игоря Тарадайкина, с добавлением озвучки студии "СВ-Дубль" по заказу ГТРК Культура.
Доп. информация: IMDb: http://www.imdb.com/title/tt0792859/
Контейнер TS с записью этой документалки в формате DVB с телетрансляции Первого канала (озвучка Игоря Тарадайкина) был разобран; из VHSRip'а с записью этого фильма с телетрансляции ГТРК Культура была выделена дорожка с озвучкой студии "СВ-Дубль" (по заказу ГТРК Культура); видео и обе звуковые дорожки перепакованы в mkv.
Сэмпл
Качество: TVRip
Формат: MKV
Видео: 720х576, 25.00 fps, MPEG2, 3547 kbps, 0.342 bit/pixel
Аудио 1: Russian (AC3, 2 ch, 48.0 KHz, 192 Kbps) - студия "СВ-Дубль" по заказу ГТРК Культура;
Аудио 2: Russian (MP2, 2 ch, 48.0 KHz, 192 Kbps) - Первый канал с озвучкой Игоря Тарадайкина

MediaInfo

Общее
Уникальный идентификатор : 254503671146535662759852150713038763986 (0xBF779FC67191AF48A01D31BD840177D2)
Полное имя : C:\Users\user\Downloads\William.Faulkner.mkv
Формат : Matroska
Версия формата : Version 4 / Version 2
Размер файла : 1,21 Гбайт
Продолжительность : 43 м.
Режим общего битрейта : Переменный
Общий поток : 4011 Кбит/сек
Дата кодирования : UTC 2015-05-31 09:16:31
Программа кодирования : mkvmerge v7.8.0 ('River Man') 32bit built on Mar 27 2015 16:18:02
Библиотека кодирования : libebml v1.3.1 + libmatroska v1.4.2
DURATION : 00:43:02.976000000
NUMBER_OF_FRAMES : 107624
NUMBER_OF_BYTES : 61991424
_STATISTICS_WRITING_APP : mkvmerge v7.8.0 ('River Man') 32bit built on Mar 27 2015 16:18:02
_STATISTICS_WRITING_DATE_UTC : 2015-05-31 09:16:31
_STATISTICS_TAGS : BPS DURATION NUMBER_OF_FRAMES NUMBER_OF_BYTES
Видео
Идентификатор : 1
Формат : MPEG Video
Версия формата : Version 2
Профиль формата : Main@Main
Параметр BVOP формата : Нет
Параметр матрицы формата : Выборочная
Идентификатор кодека : V_MPEG2
Идентификатор кодека/Информация : MPEG 1 or 2 Video
Продолжительность : 43 м.
Вид битрейта : Переменный
Битрейт : 3547 Кбит/сек
Максимальный битрейт : 4500 Кбит/сек
Ширина : 720 пикселей
Высота : 576 пикселей
Соотношение сторон : 4:3
Режим частоты кадров : Постоянный
Частота кадров : 25,000 кадров/сек
Стандарт вещания : PAL
Цветовое пространство : YUV
Субдискретизация насыщенности : 4:2:0
Битовая глубина : 8 бит
Тип развёртки : Чересстрочная
Порядок развёртки : Верхнее поле первое
Метод сжатия : С потерями
Бит/(Пиксели*Кадры) : 0.342
Размер потока : 1,07 Гбайт (88%)
Default : Да
Forced : Нет
Аудио #1
Идентификатор : 2
Формат : AC-3
Формат/Информация : Audio Coding 3
Расширение режима : CM (complete main)
Параметр Endianness формата : Big
Идентификатор кодека : A_AC3
Продолжительность : 43 м.
Вид битрейта : Постоянный
Битрейт : 192 Кбит/сек
Каналы : 2 канала
Расположение каналов : Front: L R
Частота : 48,0 КГц
Битовая глубина : 16 бит
Метод сжатия : С потерями
Задержка видео : -77 мс.
Размер потока : 59,1 Мбайт (5%)
Заголовок : СВ-Дубль
Язык : Russian
Default : Да
Forced : Нет
Аудио #2
Идентификатор : 3
Формат : MPEG Audio
Версия формата : Version 1
Профиль формата : Layer 2
Идентификатор кодека : A_MPEG/L2
Идентификатор кодека/Подсказка : MP2
Продолжительность : 43 м.
Вид битрейта : Постоянный
Битрейт : 192 Кбит/сек
Каналы : 2 канала
Частота : 48,0 КГц
Метод сжатия : С потерями
Задержка видео : -69 мс.
Размер потока : 59,1 Мбайт (5%)
Заголовок : Первый канал
Язык : Russian
Default : Нет
Forced : Нет
[teatrix.ru].t21313.torrent 
Торрент: Зарегистрирован [ 2016-03-20 11:59 ] · 54F9BA75401D4474A280A1C76C0EFAB921E018D0

Скачать .torrent

Скачать

13 KB

Статус: проверено
Скачан: 0 раз
Размер: 1.21 GB
terms.php



Быстрый ответ

Имя:

      
Для отправки сообщений необходимо включить JavaScript
Показать сообщения:    

Текущее время: 04-Дек 04:55

Часовой пояс: UTC + 3


Вы можете начинать темы
Вы можете отвечать на сообщения
Вы не можете редактировать свои сообщения
Вы не можете удалять свои сообщения
Вы не можете голосовать в опросах
Вы не можете прикреплять файлы к сообщениям
Вы можете скачивать файлы