(Orchestral) Gustav Mаhler - Symphonie Nr.1 (NBC Symphony Orchestra - Bruno Wаlter) - 1995, FLAC (image+.cue) lossless


 

[Цитировать]

8th April 1939
BRUNO WALTER
conducts Mahler's First Symphony
with the NBC Symphony Orchestra
--- Жанр: Orchestral
Страна-производитель диска: Italy
Год издания диска: 1995
Издатель (лейбл): Grammofono 2000
Дата записи: 08.04.1939
Аудиокодек: FLAC
Тип рипа: image+.cue
Битрейт аудио: lossless
Продолжительность: 47'28''
Источник: собственный рип
Наличие сканов в содержимом раздачи: да
Треклист:
G.Mahler - Symphonie Nr.1:
[01] I. Langsam. Schleppend
[02] II. Kräftig bewegt, doch nicht zu schell
[03] III. Feierlich und gemessen, ohne zu schleppend
[04] IV. Stürmisch bewegt
Исполнители:
NBC Symphony Orchestra - Bruno Walter-

Лог создания рипа

Exact Audio Copy V1.0 beta 3 from 29. August 2011
EAC extraction logfile from 30. April 2014, 0:02
NBC Symphony Orchestra - Bruno Walter / G.Mahler - Symphonie Nr.1
Used drive : COMPAQ CD-ROM LTN403 Adapter: 0 ID: 0
Read mode : Secure
Utilize accurate stream : Yes
Defeat audio cache : Yes
Make use of C2 pointers : No
Read offset correction : -1164
Overread into Lead-In and Lead-Out : No
Fill up missing offset samples with silence : Yes
Delete leading and trailing silent blocks : No
Null samples used in CRC calculations : Yes
Used interface : Native Win32 interface for Win NT & 2000
Used output format : User Defined Encoder
Selected bitrate : 1024 kBit/s
Quality : High
Add ID3 tag : No
Command line compressor : C:\Program Files\FLAC\flac.exe
Additional command line options : -T"COMMENT=rip by el coronel" -8 -V %source%
TOC of the extracted CD
Track | Start | Length | Start sector | End sector
---------------------------------------------------------
1 | 0:00.33 | 12:00.50 | 33 | 54082
2 | 12:01.08 | 6:11.50 | 54083 | 81957
3 | 18:12.58 | 11:20.50 | 81958 | 133007
4 | 29:33.33 | 17:55.00 | 133008 | 213632
Range status and errors
Selected range
Filename D:\G.Mahler - Symphonie Nr.1 (NBC, Walter).wav
Peak level 100.0 %
Extraction speed 3.0 X
Range quality 100.0 %
Test CRC A2B1A072
Copy CRC A2B1A072
Copy OK
No errors occurred
End of status report
==== Log checksum A4D9F82C429B1965AAD53777CDC3643782C7D61D50ED87E45BF4DC54D70F0922 ====

Содержание индексной карты (.CUE)

REM GENRE Classical
REM DATE 1995
REM DISCID 300B2004
REM COMMENT "ExactAudioCopy v1.0b3"
PERFORMER "NBC Symphony Orchestra - Bruno Walter"
TITLE "G.Mahler - Symphonie Nr.1"
FILE "G.Mahler - Symphonie Nr.1 (NBC, Walter).flac" WAVE
TRACK 01 AUDIO
TITLE "I. Langsam. Schleppend"
PERFORMER "NBC Symphony Orchestra - Bruno Walter"
INDEX 00 00:00:00
INDEX 01 00:00:33
TRACK 02 AUDIO
TITLE "II. Kraftig bewegt, doch nicht zu schell"
PERFORMER "NBC Symphony Orchestra - Bruno Walter"
INDEX 00 12:01:07
INDEX 01 12:01:08
TRACK 03 AUDIO
TITLE "III. Feierlich und gemessen, ohne zu schleppend"
PERFORMER "NBC Symphony Orchestra - Bruno Walter"
INDEX 01 18:12:58
TRACK 04 AUDIO
TITLE "IV. Sturmich bewegt"
PERFORMER "NBC Symphony Orchestra - Bruno Walter"
INDEX 01 29:33:33
-



Показать сообщения:    

Текущее время: 03-Дек 12:39

Часовой пояс: UTC + 3


Вы не можете начинать темы
Вы не можете отвечать на сообщения
Вы не можете редактировать свои сообщения
Вы не можете удалять свои сообщения
Вы не можете голосовать в опросах
Вы не можете прикреплять файлы к сообщениям
Вы не можете скачивать файлы