(Orchestral, vocal) Gustav Mahler - Symphonie Nr.4 | Lieder ung Gesange aus der Jugendzeit (Desi Hаlban • Boston Symphony Orchestra - Bruno Walter) - 1998, FLAC (image+.cue) lossless


 

[Цитировать]

Bruno Walterdirige Gustave Mahler--- Жанр: Orchestral, vocal
Страна-производитель диска: France
Год издания диска: 1998
Издатель (лейбл): LYS
Дата записи: 1947
Аудиокодек: FLAC
Тип рипа: image+.cue
Битрейт аудио: lossless
Продолжительность: 70'57''
Источник: собственный рип
Наличие сканов в содержимом раздачи: да
Треклист:
Symphonie Nr.4:
[01] I. Bedächtig. Nicht eilen
[02] II. In gemächlicher Bewegung. Ohne Hast
[03] III. Ruhevoll
[04] IV. Sehr bechaglich
Lieder un Gesänge aus der Jugendzeit*:
[05] Errinerung
[06] Scheiden und Meiden
[07] Nicht wiedesehen!
[08] Ich ging mit Lust
[09] Ablösung im Sommer
[10] Hans und Grete
[11] Frühlings Morgen
[12] Starke Einbildungskraft
Исполнители:
Desi Halban, soprano
Boston Symphony Orchestra
Bruno Walter
, conductor and piano*-

Лог создания рипа

Exact Audio Copy V1.0 beta 3 from 29. August 2011
EAC extraction logfile from 14. May 2014, 22:52
D.Halban; Boston Symphony Orchestra - B.Walter / Mahler - Symphonie Nr.4
Used drive : COMPAQ CD-ROM LTN403 Adapter: 0 ID: 0
Read mode : Secure
Utilize accurate stream : Yes
Defeat audio cache : Yes
Make use of C2 pointers : No
Read offset correction : -1164
Overread into Lead-In and Lead-Out : No
Fill up missing offset samples with silence : Yes
Delete leading and trailing silent blocks : No
Null samples used in CRC calculations : Yes
Used interface : Native Win32 interface for Win NT & 2000
Used output format : User Defined Encoder
Selected bitrate : 1024 kBit/s
Quality : High
Add ID3 tag : No
Command line compressor : C:\Program Files\FLAC\flac.exe
Additional command line options : -T"COMMENT=rip by el coronel" -8 -V %source%
TOC of the extracted CD
Track | Start | Length | Start sector | End sector
---------------------------------------------------------
1 | 0:00.00 | 16:30.62 | 0 | 74311
2 | 16:30.62 | 8:49.26 | 74312 | 114012
3 | 25:20.13 | 20:05.39 | 114013 | 204426
4 | 45:25.52 | 8:24.00 | 204427 | 242226
5 | 53:49.52 | 2:26.02 | 242227 | 253178
6 | 56:15.54 | 2:17.38 | 253179 | 263491
7 | 58:33.17 | 3:31.03 | 263492 | 279319
8 | 62:04.20 | 3:12.56 | 279320 | 293775
9 | 65:17.01 | 1:19.09 | 293776 | 299709
10 | 66:36.10 | 1:44.46 | 299710 | 307555
11 | 68:20.56 | 1:32.63 | 307556 | 314518
12 | 69:53.44 | 1:03.11 | 314519 | 319254
Range status and errors
Selected range
Filename D:\Mahler - Symphonie Nr.4 (BSO - Walter).wav
Peak level 73.2 %
Extraction speed 3.0 X
Range quality 100.0 %
Test CRC BC23F136
Copy CRC BC23F136
Copy OK
No errors occurred
End of status report
==== Log checksum 0635E5CB42599327D7A40160EA665AE4E64B54A6634A549E956577BB592469EB ====

Содержание индексной карты (.CUE)

REM GENRE Classical
REM DATE 1998
REM DISCID BC10A00C
REM COMMENT "ExactAudioCopy v1.0b3"
PERFORMER "D.Halban; Boston Symphony Orchestra - B.Walter"
TITLE "Mahler - Symphonie Nr.4"
FILE "Mahler - Symphonie Nr.4 (BSO - Walter).flac" WAVE
TRACK 01 AUDIO
TITLE "Symphonie Nr.4: I. Bedachtig. Nicht eilen"
PERFORMER "D.Halban; Boston Symphony Orchestra - B.Walter"
INDEX 01 00:00:00
TRACK 02 AUDIO
TITLE "II. In gemachlicher Bewegung. Ohne Hast"
PERFORMER "D.Halban; Boston Symphony Orchestra - B.Walter"
INDEX 00 16:28:68
INDEX 01 16:30:62
TRACK 03 AUDIO
TITLE "III. Ruhevoll"
PERFORMER "D.Halban; Boston Symphony Orchestra - B.Walter"
INDEX 00 25:18:12
INDEX 01 25:20:13
TRACK 04 AUDIO
TITLE "IV. Sehr bechaglich"
PERFORMER "D.Halban; Boston Symphony Orchestra - B.Walter"
INDEX 00 45:23:48
INDEX 01 45:25:52
TRACK 05 AUDIO
TITLE "Lieder un Gesange aus der Jugendzeit: Errinerung"
PERFORMER "D.Halban; B.Walter - piano"
INDEX 00 53:44:51
INDEX 01 53:49:52
TRACK 06 AUDIO
TITLE "Scheiden und Meiden"
PERFORMER "D.Halban; B.Walter - piano"
INDEX 00 56:14:46
INDEX 01 56:15:54
TRACK 07 AUDIO
TITLE "Nicht wiedesehen!"
PERFORMER "D.Halban; B.Walter - piano"
INDEX 00 58:30:16
INDEX 01 58:33:17
TRACK 08 AUDIO
TITLE "Ich ging mit lust"
PERFORMER "D.Halban; B.Walter - piano"
INDEX 00 62:02:11
INDEX 01 62:04:20
TRACK 09 AUDIO
TITLE "Ablosung im Sommer"
PERFORMER "D.Halban; B.Walter - piano"
INDEX 00 65:15:00
INDEX 01 65:17:01
TRACK 10 AUDIO
TITLE "Hans und Grete"
PERFORMER "D.Halban; B.Walter - piano"
INDEX 00 66:34:08
INDEX 01 66:36:10
TRACK 11 AUDIO
TITLE "Fruhlings Morgen"
PERFORMER "D.Halban; B.Walter - piano"
INDEX 00 68:18:54
INDEX 01 68:20:56
TRACK 12 AUDIO
TITLE "Starke Einbildungskraft"
PERFORMER "D.Halban; B.Walter - piano"
INDEX 00 69:51:43
INDEX 01 69:53:44
-



Показать сообщения:    

Текущее время: 04-Дек 06:55

Часовой пояс: UTC + 3


Вы не можете начинать темы
Вы не можете отвечать на сообщения
Вы не можете редактировать свои сообщения
Вы не можете удалять свои сообщения
Вы не можете голосовать в опросах
Вы не можете прикреплять файлы к сообщениям
Вы не можете скачивать файлы