Видео-уроки от школы танцев Волнорез [2008 г., Обучающее видео, DVDRip, RUS]


Статистика раздачи [Обновить пиров]
Размер:  716 MB   |    Зарегистрирован:  8 месяцев 18 дней   |    Скачан:  0 раз

Полного источника не было: Никогда

 
   
 
 
 

[Цитировать]

Видео-уроки от школы танцев "Волнорез"

Год выпуска: 2008
Страна: Россия
Жанр: Обучающее видео
Продолжительность: 8 мастер-классов общей продолжительностью 230 мин
Язык: Русский
Описание: Мастер классы: electric-boogie, footwork, king-tut, locking, powermove, powertricks, robot, toprock.
Самоучитель брейк данса призван помочь вам составить впечатление о стилях, дать материал для отработки дома, показать разнообразие техник. Полезно попробовать сделать кросс-степ, сикс-степ и бейби фриз перед первым занятием. Не расстраивайтесь, если не получилось — это нормально, на занятии получится. Можно подсмотреть выученные на прошлой тренировке элементы, если вдруг забыли. Во многих городах вообще нет ни одной школы брейк-данса, зато есть много талантливых ребят, которые при помощи этого break dance видео смогут освоить те или иные движения. Не прошло и пол года с момента публикации этого видео, как к нашим преподавателям, во время поездок на чемпионаты в другие города, стали подходить люди с благодарностями за обучалки. Хочется напомнить об осторожности и предостеречь от возможных травм — пожалуйста, хорошенько разомнитесь перед тем как попробуете что-то повторить и не делайте ничего сложного, если не уверены в собственных силах. Многие элементы стоит начинать учить только под руководством грамотного преподавателя.
Учиться танцевать по брейк видео — достаточно сложно. Вам будет тяжеловато без живого преподавателя, который сможет объяснить движение несколькими способами, указать на ваши индивидуальные ошибки. Ничто не заменит школьной атмосферы и общения с другими учениками. В отсутствии общих джемов после занятия, вам будет нелегко избавиться от стеснения танцевать на публике. Тем не менее — не сдавайтесь, пробуйте еще и еще. Дорогу осилит идущий.
Качество: DVDRip
Формат: AVI
Видео кодек: XviD
Аудио кодек: MP3

Mediainfo

General
Complete name : D:\Alexander\Все\Volnorez\electric-boogie.avi
Format : AVI
Format/Info : Audio Video Interleave
File size : 125 MiB
Duration : 28mn 11s
Overall bit rate : 620 Kbps
Video
ID : 1
Format : MPEG-4 Visual
Format profile : Simple@L3
Format settings, BVOP : Yes
Format settings, QPel : No
Format settings, GMC : No warppoints
Format settings, Matrix : Custom
Codec ID : XVID
Codec ID/Hint : XviD
Duration : 28mn 11s
Bit rate : 558 Kbps
Width : 428 pixels
Height : 348 pixels
Display aspect ratio : 5:4
Frame rate : 25.000 fps
Resolution : 8 bits
Colorimetry : 4:2:0
Scan type : Progressive
Bits/(Pixel*Frame) : 0.150
Stream size : 112 MiB (90%)
Writing library : XviD 1.1.0 Beta2 (UTC 2005-04-04)
Audio
ID : 0
Format : MPEG Audio
Format version : Version 2
Format profile : Layer 3
Mode : Joint stereo
Format_Settings_ModeExtension : Intensity Stereo + MS Stereo
Codec ID : 55
Codec ID/Hint : MP3
Duration : 28mn 11s
Bit rate mode : Constant
Bit rate : 56.0 Kbps
Channel(s) : 2 channels
Sampling rate : 24.0 KHz
Stream size : 11.3 MiB (9%)
Alignment : Split accross interleaves
Interleave, duration : 40 ms (1.00 video frame)
[teatrix.ru].t21317.torrent 
Торрент: Зарегистрирован [ 2016-03-20 12:01 ] · D826B06F9C0EEC1B5F650A51087A21D1E2D64E7B

Скачать .torrent

Скачать

15 KB

Статус: проверено
Скачан: 0 раз
Размер: 716 MB
terms.php



Быстрый ответ

Имя:

      
Для отправки сообщений необходимо включить JavaScript
Показать сообщения:    

Текущее время: 07-Дек 13:40

Часовой пояс: UTC + 3


Вы можете начинать темы
Вы можете отвечать на сообщения
Вы не можете редактировать свои сообщения
Вы не можете удалять свои сообщения
Вы не можете голосовать в опросах
Вы не можете прикреплять файлы к сообщениям
Вы можете скачивать файлы