[TR24][OF] J.S. Bach - Sonatas & Partitas for Solo Violin, BWV 1001-1006 - Julia Fischer - 2005 (Classical)


Статистика раздачи [Обновить пиров]
Размер:  2.64 GB   |    Зарегистрирован:  8 месяцев 22 дня   |    Скачан:  0 раз

Полного источника не было: Никогда

 
   
 
 
 

[Цитировать]

J.S. Bach
Sonatas & Partitas for Solo Violin
Julia Fischer
-Год издания: 2005 | Жанр: Classical
Издатель: PentaTone Classics | Продолжительность: 02:28:59
Наличие сканов: Sleeve, Digital Booklet- -Julia Fischer, violin (Jean Baptiste Guadagnini from 1750)
Recorded: Polyhymnia, Doopsgezinde Singelkerk, Amsterdam, Netherlands
December 2004

-
Контейнер: FLAC (*.flac) | Тип рипа: tracks
Разрядность: 24bit / 96kHz | Количество каналов: 2.0

-
Треклист
Johann Sebastian Bach (1685-1750)
CD 1
Sonata No.1 in G minor, BWV 1001
01. I. Adagio (4:44)
02. II. Fuga (Allegro) (6:02)
03. III. Siciliana (3:03)
04. IV. Presto (3:43)
Partita No.1 in B minor, BWV 1002
05. I. Allemanda (6:30)
06. II. Double (2:55)
07. III. Corrente (3:00)
08. IV. Double (Presto) (3:34)
09. V. Sarabande (4:16)
10. VI. Double (3:15)
11. VII. Tempo di Borea (3:57)
12. VIII. Double (3:48)
Sonata No.2 in A minor, BWV 1003
13. I. Grave (4:55)
14. II. Fuga (8:15)
15. III. Andante (5:32)
16. IV. Allegro (5:32)
CD 2
Partita No.2 in D minor, BWV 1004
01. I. Allemande (4:42)
02. II. Corrente (2:32)
03. III. Sarabanda (4:57)
04. IV. Giga (4:06)
05. V. Ciaccona (15:53)
Sonata No.3 in C, BWV 1005
06. I. Adagio (5:21)
07. II. Fuga (10:40)
08. III. Largo (3:58)
09. IV. Allegro assai (4:54)
Partita No.3 in E, BWV 1006
10. I. Preludio (3:29)
11. II. Loure (5:06)
12. III. Gavotte en Rondeau (3:11)
13. IV. Menuets I - II (3:57)
14. V. Bourrée (1:25)
15. VI. Gigue (1:47)

О релизе


Having been a fan of Julia Fischer from my first encounter with her, I leapt on this disk with the highest expectations. I was not disappointed. Julia Fischer is no longer a talented child; she is a highly skilled young woman of 21 who, as preparation for these recordings, played on the piano the Busoni transcription of the ciaccona (!) then began to expand her own violin performance in light of what Busoni had shown was possible. In the interview with Harriet Smith, Fischer tells us in her delightful manner and fluent English how she grew up in a musical household, how it was only an accident that she became a violinist instead of a pianist and that she feels at home on both instruments.
The argument that a 21 year old can’t play profound music because she hasn’t suffered enough is belied by the fact that we do most of our suffering during adolescence; note the high suicide rate for teenagers. If we are lucky, as we age we gain compassion, insight, toleration, and we become weaker in the face of what sufferings remain. Hopefully, experience should teach us that other people have good ideas, too, and we become less assertive of our originality. But, most important, we lose finger co-ordination, so however Julia Fischer plays these works when she is sixty, she won’t play them with as much confidence or agility or purity as she plays them right now. You may want to buy this disk now for comparison later, as there is no doubt we will be hearing a great deal from Julia Fischer in the years to come.
This is awkward music to play, the more difficult pieces all but impossible to play with perfect grace, at least with a modern straight high-tension bow. Ralph Schroeder recorded them on CBS LP with a low tension arced bow which made arpeggiating the chords unnecessary; all the notes of the chords could be played simultaneously. It made for an odd but relaxed sound and perhaps impaired his agility in faster passages. No modern violinist has adopted the arced bow, and the efforts of recent performers to achieve smooth as well as agile performances have been remarkable. There is a danger here in that playing the works so they sound easy will make them sound superficial, whereas in earlier recordings the performer’s struggle may have inappropriately contributed to the drama. We need to remember that however he himself played them, Bach never struggled, and probably dashed the works off at break-neck speed.
The Martzy recording is the finest previous violin recording by a woman and in many ways the finest recording of these works ever done. Fischer’s performance is higher energy, more graceful, less mystical, but no less precise and assured, and possibly even more secure in pitch. Compared with anyone, Fischer’s ciaccona is a magnificent achievement, one of the very best, as are her fugas in g and C, and her preludio in E. Am I ready to transfer my allegiance from Martzy to Fischer? I’m thinking about it. Paul Galbraith’s guitar transcription is amazingly successful particularly in the fugues and shorter pieces. That said, his proposal that Bach considered the ciaconna to represent the progress of Jesus’ steps towards Calvary results in a morbid but not notably insightful performance of that piece, rather lacking in drama and variety of tone.
Why do we need SACD for violin recording? I remember when stereo LPs cost a dollar more than monophonic we would debate with ourselves whether stereo was worth a dollar or not. But violin sound is one of the most difficult sounds there is to record, and it uses every bit of the full range of the SACD if realism is to be attained. I came to listen to these recordings direct from a live solo violin concert and at once appreciated what had been accomplished here, evident even on the CD tracks on this hybrid disk. Listen to the CD tracks and be impressed; then listen to the SACD tracks and be bowled over.
Paul Shoemaker "musicweb-international.com"

ОтчётыДинамический диапазон

CD 1
foobar2000 1.2.2 / Dynamic Range Meter 1.1.1
log date: 2015-06-01 12:16:58
--------------------------------------------------------------------------------
Analyzed: Julia Fischer / Bach: Sonatas and Partitas for Solo Violin
--------------------------------------------------------------------------------
DR Peak RMS Duration Track
--------------------------------------------------------------------------------
DR13 -7.22 dB -26.27 dB 4:44 ?-Sonata No.1 in G minor, BWV 1001: I. Adagio
DR13 -1.22 dB -20.20 dB 6:02 ?-Sonata No.1 in G minor, BWV 1001: II. Fuga (Allegro)
DR13 -7.98 dB -24.86 dB 3:03 ?-Sonata No.1 in G minor, BWV 1001: III. Siciliana
DR13 -4.55 dB -22.38 dB 3:43 ?-Sonata No.1 in G minor, BWV 1001: IV. Presto
DR12 -7.32 dB -23.77 dB 6:30 ?-Partita No.1 in B minor, BWV 1002: I. Allemanda
DR14 -6.09 dB -24.93 dB 2:55 ?-Partita No.1 in B minor, BWV 1002: II. Double
DR14 -4.46 dB -21.53 dB 3:00 ?-Partita No.1 in B minor, BWV 1002: III. Corrente
DR14 -5.85 dB -23.22 dB 3:34 ?-Partita No.1 in B minor, BWV 1002: IV. Double (Presto)
DR13 -7.08 dB -24.58 dB 4:16 ?-Partita No.1 in B minor, BWV 1002; V. Sarabande
DR14 -5.65 dB -24.02 dB 3:15 ?-Partita No.1 in B minor, BWV 1002: VI. Double
DR14 -4.01 dB -21.65 dB 3:57 ?-Partita No.1 in B minor, BWV 1002: VII. Tempo di Borea
DR13 -4.35 dB -21.71 dB 3:48 ?-Partita No.1 in B minor, BWV 1002: VIII. Double
DR14 -5.25 dB -25.83 dB 4:55 ?-Sonata No.2 in A minor, BWV 1003; I. Grave
DR14 -0.31 dB -20.24 dB 8:15 ?-Sonata No.2 in A minor, BWV 1003; II. Fuga
DR14 -7.24 dB -27.57 dB 5:32 ?-Sonata No.2 in A minor, BWV 1003: III. Andante
DR14 -3.92 dB -21.34 dB 5:32 ?-Sonata No.2 in A minor, BWV 1003: IV. Allegro
--------------------------------------------------------------------------------
Number of tracks: 16
Official DR value: DR13
Samplerate: 96000 Hz
Channels: 2
Bits per sample: 24
Bitrate: 2549 kbps
Codec: FLAC
================================================================================
CD 2
foobar2000 1.2.2 / Dynamic Range Meter 1.1.1
log date: 2015-06-01 12:19:30
--------------------------------------------------------------------------------
Analyzed: Julia Fischer / Bach: Sonatas and Partitas for Solo Violin
--------------------------------------------------------------------------------
DR Peak RMS Duration Track
--------------------------------------------------------------------------------
DR14 -6.02 dB -23.70 dB 4:42 ?-Partita No.2 in D minor, BWV 1004: I. Allemande
DR14 -2.49 dB -22.88 dB 2:32 ?-Partita No.2 in D minor, BWV 1004; II. Corrente
DR13 -7.38 dB -27.09 dB 4:57 ?-Partita No.2 in D minor, BWV 1004: III. Sarabanda
DR12 -5.33 dB -22.91 dB 4:06 ?-Partita No.2 in D minor, BWV 1004; IV. Giga
DR14 -2.10 dB -22.06 dB 15:53 ?-Partita No.2 in D minor, BWV 1004; V. Ciaccona
DR14 -8.48 dB -27.39 dB 5:21 ?-Sonata No.3 in C, BWV 1005: I. Adagio
DR13 -4.57 dB -21.13 dB 10:40 ?-Sonata No.3 in C, BWV 1005: II. Fuga
DR13 -10.54 dB -28.17 dB 3:58 ?-Sonata No.3 in C, BWV 1005: III. Largo
DR14 -5.19 dB -23.20 dB 4:54 ?-Sonata No.3 in C, BWV 1005: IV. Allegro assai
DR12 -5.41 dB -21.66 dB 3:29 ?-Partita No.3 in E, BWV 1006: I. Preludio
DR13 -6.68 dB -25.57 dB 5:06 ?-Partita No.3 in E, BWV 1006: II. Loure
DR14 -6.13 dB -23.54 dB 3:11 ?-Partita No.3 in E, BWV 1006: III. Gavotte en Rondeau
DR13 -4.96 dB -22.97 dB 3:57 ?-Partita No.3 in E, BWV 1006: IV. Menuets I - II
DR16 -2.81 dB -22.95 dB 1:25 ?-Partita No.3 in E, BWV 1006: V. Bourrée
DR12 -6.53 dB -23.75 dB 1:47 ?-Partita No.3 in E, BWV 1006: VI. Gigue
--------------------------------------------------------------------------------
Number of tracks: 15
Official DR value: DR13
Samplerate: 96000 Hz
Channels: 2
Bits per sample: 24
Bitrate: 2510 kbps
Codec: FLAC
================================================================================

Скриншоты спектра частот

Доп. информация

При скачивании, если необходимо, переименуйте папку, в которой будет находиться альбомБольшая просьба к скачавшим поддерживать раздачу! Помогайте другим, ведь вам тоже может понадобиться помощь!Не забываем говорить "Спасибо"!Комментарии приветствуются!
Julia Fischer Hi-Res
[teatrix.ru].t21319.torrent 
Торрент: Зарегистрирован [ 2016-03-20 11:59 ] · 364AF585ADEF978A20B6C1B2CEE1C5ACD165D1CD

Скачать .torrent

Скачать

17 KB

Статус: проверено
Скачан: 0 раз
Размер: 2.64 GB
terms.php



Быстрый ответ

Имя:

      
Для отправки сообщений необходимо включить JavaScript
Показать сообщения:    

Текущее время: 11-Дек 16:55

Часовой пояс: UTC + 3


Вы можете начинать темы
Вы можете отвечать на сообщения
Вы не можете редактировать свои сообщения
Вы не можете удалять свои сообщения
Вы не можете голосовать в опросах
Вы не можете прикреплять файлы к сообщениям
Вы можете скачивать файлы