BBoy WorkShop Vol.1 By BBoy Focus [2009, Break Dance, Брейк данс, DVDRip, ENG] (Видеоурок)


Статистика раздачи [Обновить пиров]
Размер:  1.99 GB   |    Зарегистрирован:  8 месяцев 16 дней   |    Скачан:  0 раз

Полного источника не было: Никогда

 
   
 
 
 

[Цитировать]

BBoy WorkShop Vol.1 By BBoy Focus
Страна: США
Тематика: Break Dance
Тип раздаваемого материала: Видеоурок
Продолжительность: 138 мин.
Год выпуска: 2009
Язык: Английский
Перевод: Отсутствует
Описание: Первый выпуск учит основам брейк-данса и, что важнее всего, основам взаимодействия с музыкой, с битом. Под руководством легендарного B-boy Focus и всемирно знаменитого барабанщика Ed Clery на этих уроках вы обучитесь необходимым основам для того, чтобы начать свой собственный путь бибоя.
На этом диске вы найдете более 40 движений и вариаций Top Rocks, Go Downs, Footworks, Freezes и Power. Живые барабаны помогут получить максимум от тренировки. Именно благодаря этой необычной схеме преподавания вы сможете понять главную идею нового поколения b-boys того, что Breakdance это не движение, а танец...
Показываются движения:
Toprock: 2 Step, Salsa Rock, Indian Step, Sailor Step.
Go Downs: Basic Go Down, Kickout, 3 Knee Drop Variations, Front and Back, Sweeps.
Footwork: Cofeegrind, CC's, 6,5,4,3 and 2 Steps, Zulu Spins, Babylove, Front, Side and Back Shuffles.
Freezes: Knee Freeze, Baby Freeze, Plank, Airbaby, Chair Freeze, Handstand, Elbow Freeze.
Power: Power Entrance, Back Spins, Windmills, Swipes, Turtles, Flares, Drills.
Качество : DVDRip
Формат: AVI
Видео кодек: XviD
Аудио кодек: MP3
Видео: Xvid 720x416 25.00fps 1583Kbps 0.211B/P
Аудио: Dolby AC3 48000Hz stereo 192kbps

VTS_07_1.VOB

Video
ID : 224 (0xE0)
Format : MPEG Video
Format version : Version 2
Format profile : Main@Main
Format settings, BVOP : Yes
Format settings, Matrix : Default
Format settings, GOP : M=3, N=12
Duration : 54s 760ms
Bit rate mode : Variable
Bit rate : 6 141 Kbps
Nominal bit rate : 7 700 Kbps
Width : 720 pixels
Height : 576 pixels
Display aspect ratio : 16:9
Frame rate : 25.000 fps
Standard : PAL
Color space : YUV
Chroma subsampling : 4:2:0
Bit depth : 8 bits
Scan type : Interlaced
Scan order : Top Field First
Bits/(Pixel*Frame) : 0.592
Stream size : 40.1 MiB (95%)
Audio
ID : 128 (0x80)
Format : AC-3
Format/Info : Audio Coding 3
Mode extension : CM (complete main)
Duration : 54s 688ms
Bit rate mode : Constant
Bit rate : 192 Kbps
Channel(s) : 2 channels
Channel positions : Front: L R
Sampling rate : 48.0 KHz
Bit depth : 16 bits
Stream size : 1.25 MiB (3%)

VTS_08_1.VOB

Video
ID : 224 (0xE0)
Format : MPEG Video
Format version : Version 2
Format profile : Main@Main
Format settings, BVOP : Yes
Format settings, Matrix : Default
Format settings, GOP : M=3, N=12
Duration : 2mn 0s
Bit rate mode : Variable
Bit rate : 5 944 Kbps
Nominal bit rate : 7 700 Kbps
Width : 720 pixels
Height : 576 pixels
Display aspect ratio : 16:9
Frame rate : 25.000 fps
Standard : PAL
Color space : YUV
Chroma subsampling : 4:2:0
Bit depth : 8 bits
Scan type : Interlaced
Scan order : Top Field First
Bits/(Pixel*Frame) : 0.573
Stream size : 85.1 MiB (95%)
Audio
ID : 128 (0x80)
Format : AC-3
Format/Info : Audio Coding 3
Mode extension : CM (complete main)
Duration : 1mn 59s
Bit rate mode : Constant
Bit rate : 192 Kbps
Channel(s) : 2 channels
Channel positions : Front: L R
Sampling rate : 48.0 KHz
Bit depth : 16 bits
Stream size : 2.75 MiB (3%)

Скриншоты

[teatrix.ru].t21320.torrent 
Торрент: Зарегистрирован [ 2016-03-20 12:01 ] · 4AA16D7529D3B371C1D60D0308AF15444CB21651

Скачать .torrent

Скачать

21 KB

Статус: проверено
Скачан: 0 раз
Размер: 1.99 GB
terms.php



Быстрый ответ

Имя:

      
Для отправки сообщений необходимо включить JavaScript
Показать сообщения:    

Текущее время: 05-Дек 13:32

Часовой пояс: UTC + 3


Вы можете начинать темы
Вы можете отвечать на сообщения
Вы не можете редактировать свои сообщения
Вы не можете удалять свои сообщения
Вы не можете голосовать в опросах
Вы не можете прикреплять файлы к сообщениям
Вы можете скачивать файлы