Павел Коваленко / Electro Secrets [2010, Electro Dance, DVDRip, RUS] (Видеоурок)


Статистика раздачи [Обновить пиров]
Размер:  702 MB   |    Зарегистрирован:  8 месяцев 18 дней   |    Скачан:  0 раз

Полного источника не было: Никогда

 
   
 
 
 

[Цитировать]

Павел Коваленко / Персональные Секреты По Electro Dance / Electro Secrets
Страна: Россия
Тематика: Electro Dance
Тип раздаваемого материала: Видеоурок
Продолжительность: 01:16:29
Год выпуска: 2010
Оф. сайт: http://www.electrosecrets.ru/
Язык: Русский
Перевод: Не требуется
DVD5: http://teatrix.ru/viewtopic.php?t=3271485
Описание: Смысл диска научить вас чему-то новому или повысить уровень танца как минимум в два раза. А так же обеспечить Вас большим количеством фундаментальных знаний по теоретической части Электро дэнса (Тектоник).
Доп. информация: Эта электро энциклопедия, не просто какие-то теоретические выкладки, а именно материал, основанный на собственном опыте и опыте лучших танцоров России, оформленный в самом усваиваемом на сегодняшний день формате - видео уроков.
Качество : DVDRip
Формат: AVI
Видео кодек: XviD
Аудио кодек: MP3
Видео: 592x480 (1.23:1), 25 fps, XviD build 50 ~1144 kbps avg, 0.16 bit/pixel
Аудио: 48 kHz, MPEG Layer 3, 2 ch, ~128.00 kbps avg

Отчет MediaInfo

General
Complete name : E:\Pavel_Kovalenko_Electro_Secrets.avi
Format : AVI
Format/Info : Audio Video Interleave
File size : 702 MiB
Duration : 1h 16mn
Overall bit rate : 1 282 Kbps
Writing application : VirtualDubMod 1.5.10.2 (build 2540/release)
Writing library : VirtualDubMod build 2540/release
Video
ID : 0
Format : MPEG-4 Visual
Format profile : Advanced Simple@L5
Format settings, BVOP : Yes
Format settings, QPel : No
Format settings, GMC : No warppoints
Format settings, Matrix : Default (MPEG)
Codec ID : XVID
Codec ID/Hint : XviD
Duration : 1h 16mn
Bit rate : 1 144 Kbps
Width : 592 pixels
Height : 480 pixels
Display aspect ratio : 5:4
Frame rate : 25.000 fps
Resolution : 8 bits
Colorimetry : 4:2:0
Scan type : Progressive
Bits/(Pixel*Frame) : 0.161
Stream size : 626 MiB (89%)
Writing library : XviD 1.2.1 (UTC 2008-12-04)
Audio
ID : 1
Format : MPEG Audio
Format version : Version 1
Format profile : Layer 3
Codec ID : 55
Codec ID/Hint : MP3
Duration : 1h 16mn
Bit rate mode : Constant
Bit rate : 128 Kbps
Channel(s) : 2 channels
Sampling rate : 48.0 KHz
Stream size : 70.0 MiB (10%)
Alignment : Aligned on interleaves
Interleave, duration : 40 ms (1.00 video frame)
Interleave, preload duration : 504 ms
Writing library : LAME3.98r
Encoding settings : -m s -V 4 -q 2 -lowpass 17 -b 128

Скриншоты


Скринлисты

Контрольные суммы / File Hashes

CRC32: AE155DC7
MD5: D5E11E94F55C49903DBBD04504F0D6ED
SHA-1: 4ED278F890EFCF7CA09452B1690F97052A2B395F
[teatrix.ru].t21321.torrent 
Торрент: Зарегистрирован [ 2016-03-20 12:01 ] · FC73410BFEE5650DADC27782D3062E834916E389

Скачать .torrent

Скачать

14 KB

Статус: проверено
Скачан: 0 раз
Размер: 702 MB
terms.php



Быстрый ответ

Имя:

      
Для отправки сообщений необходимо включить JavaScript
Показать сообщения:    

Текущее время: 08-Дек 08:56

Часовой пояс: UTC + 3


Вы можете начинать темы
Вы можете отвечать на сообщения
Вы не можете редактировать свои сообщения
Вы не можете удалять свои сообщения
Вы не можете голосовать в опросах
Вы не можете прикреплять файлы к сообщениям
Вы можете скачивать файлы