(Classical, Chamber) The Quartetto Italiano plays Vitali, Vivaldi, Galuppi, Boccherini, Cambini - 1998, FLAC (image+.cue), lossless


 

[Цитировать]

The Quartetto Italiano plays Vitali, Vivaldi, Galuppi, Boccherini, Cambini
Жанр: Classical, Chamber
Страна-производитель диска: England
Год издания диска: 1998
Издатель (лейбл): Testament
Номер по каталогу: SBT 1124
Дата записи: 1953-1957
Аудиокодек: FLAC
Тип рипа: image+.cue
Битрейт аудио: lossless
Продолжительность: 76.28
Источник: собственный рип
Наличие сканов в содержимом раздачи: да
Исполнители: The Quartetto Italiano

Треклист:

01. Vitali : Capriccio
Vivaldi : Sonata a quattro 'Al Santo Sepolcro'
02. I. Largo molto
03. II. Allegro ma poco
Galuppi : Concerto a quattro in G minor
04. I. Grave e adagio
05. II. Spiritoso
06. III. Allegro
Boccherini : String quartet in E flat, Op. 58 No. 3
07. I. Allegro lento
08. II. Minuetto (allegro) e trio
09. III. Larghetto malincolico
10. IV. Allegro vivo assai - Finale
Boccherini : La tiranna spagnola, Op. 44 No. 4
11. I. Presto
12. II. Tempo di minuetto
Cambini : String quartet in G minor
13. I. Allegro affetuoso
14. II. Adagio
15. III. Presto
Total 76.28

Лог создания рипа:

Exact Audio Copy V1.0 beta 3 from 29. August 2011
Отчёт EAC об извлечении, выполненном 28. мая 2015, 22:20
Quartetto Italiano / Quartetto Italiano plays Vitali, Vivaldi, Galuppi, Boccherini, Cambini
Дисковод: Optiarc DVD RW AD-7260S Adapter: 0 ID: 1
Режим чтения : Достоверность
Использование точного потока : Да
Отключение кэша аудио : Да
Использование указателей C2 : Нет
Коррекция смещения при чтении : 48
Способность читать области Lead-in и Lead-out : Нет
Заполнение пропущенных сэмплов тишиной : Да
Удаление блоков с тишиной в начале и конце : Нет
При вычислениях CRC использовались нулевые сэмплы : Да
Интерфейс : Встроенный Win32-интерфейс для Win NT/2000
Выходной формат : Пользовательский кодировщик
Выбранный битрейт : 896 kBit/s
Качество : Высокий
Добавление ID3-тега : Нет
Утилита сжатия : C:\Program Files\FLAC Frontend\tools\flac.exe
Дополнительные параметры : -V -8 -T "Date=%year%" -T "Genre=%genre%" %source%
TOC извлечённого CD
Трек | Старт | Длительность | Начальный сектор | Конечный сектор
---------------------------------------------------------------------
1 | 0:00.00 | 5:17.02 | 0 | 23776
2 | 5:17.02 | 3:00.63 | 23777 | 37339
3 | 8:17.65 | 2:18.35 | 37340 | 47724
4 | 10:36.25 | 3:48.10 | 47725 | 64834
5 | 14:24.35 | 4:18.32 | 64835 | 84216
6 | 18:42.67 | 5:22.00 | 84217 | 108366
7 | 24:04.67 | 7:04.73 | 108367 | 140239
8 | 31:09.65 | 4:05.42 | 140240 | 158656
9 | 35:15.32 | 4:42.13 | 158657 | 179819
10 | 39:57.45 | 4:52.40 | 179820 | 201759
11 | 44:50.10 | 4:48.65 | 201760 | 223424
12 | 49:39.00 | 5:51.17 | 223425 | 249766
13 | 55:30.17 | 8:30.63 | 249767 | 288079
14 | 64:01.05 | 6:37.45 | 288080 | 317899
15 | 70:38.50 | 5:47.50 | 317900 | 343974
Характеристики диапазона извлечения и сообщения об ошибках
Выбранный диапазон
Имя файла D:\EAC\Мои раздачи\Vitali, Vivaldi, Galuppi, Boccherini, Cambini - The Quartetto Italiano\Quartetto Italiano - Quartetto Italiano plays Vitali, Vivaldi, Galuppi, Boccherini, Cambini.wav
Пиковый уровень 90.1 %
Скорость извлечения 4.6 X
Качество диапазона 100.0 %
CRC теста C133DA24
CRC копии C133DA24
Копирование... OK
Ошибок не произошло
AccurateRip: сводка
Трек 1 точность не определена (достоверность 3) [151F1376], AccurateRip вернул [F6BAF625] (AR v2)
Трек 2 точность не определена (достоверность 3) [10630954], AccurateRip вернул [D6E0CCF4] (AR v2)
Трек 3 точность не определена (достоверность 3) [F731EC5D], AccurateRip вернул [BD0AAC89] (AR v2)
Трек 4 точность не определена (достоверность 3) [98F7E29C], AccurateRip вернул [367E8093] (AR v2)
Трек 5 точность не определена (достоверность 3) [A3E09365], AccurateRip вернул [0AA7FC06] (AR v2)
Трек 6 точность не определена (достоверность 3) [4A5615FF], AccurateRip вернул [BBA28BEA] (AR v2)
Трек 7 точность не определена (достоверность 3) [C7FA9A5C], AccurateRip вернул [BF44914D] (AR v2)
Трек 8 точность не определена (достоверность 3) [BB82052B], AccurateRip вернул [2D47724A] (AR v2)
Трек 9 точность не определена (достоверность 3) [A8718C57], AccurateRip вернул [D406C25E] (AR v2)
Трек 10 точность не определена (достоверность 3) [455B4C6B], AccurateRip вернул [96F79502] (AR v2)
Трек 11 точность не определена (достоверность 3) [3835C07C], AccurateRip вернул [563ADB0C] (AR v2)
Трек 12 точность не определена (достоверность 3) [2BA8FF9C], AccurateRip вернул [2F8F05C1] (AR v2)
Трек 13 точность не определена (достоверность 3) [A6A87331], AccurateRip вернул [14ABDB1E] (AR v2)
Трек 14 точность не определена (достоверность 3) [7F006866], AccurateRip вернул [BD40A7DF] (AR v2)
Трек 15 точность не определена (достоверность 3) [ED7ADCBF], AccurateRip вернул [753C6429] (AR v2)
Ни один трек не прошёл проверки на точность
В вашей базе может быть иной вариант штамповки диска
Конец отчёта
==== Контрольная сумма отчёта 464CD8FF733EC542529AC2E98A0F0423794954959B484424AFA3EEFB61004F19 ====



Показать сообщения:    

Текущее время: 03-Дек 22:48

Часовой пояс: UTC + 3


Вы не можете начинать темы
Вы не можете отвечать на сообщения
Вы не можете редактировать свои сообщения
Вы не можете удалять свои сообщения
Вы не можете голосовать в опросах
Вы не можете прикреплять файлы к сообщениям
Вы не можете скачивать файлы