(Classical) Valen, Berg, Messiaen, Webern - Choral Works - The Norwegian Soloists’ Choir, Norwegian Radio Orchestra, Grete Pedersen - 2013, FLAC (image+.cue) lossless


Статистика раздачи [Обновить пиров]
Размер:  230 MB   |    Зарегистрирован:  8 месяцев 18 дней   |    Скачан:  1 раз

Полного источника не было: 1 месяц 4 дня

 
   
 
 
 

[Цитировать]

Valen, Berg, Messiaen, Webern - Choral Works - The Norwegian Soloists’ Choir, Norwegian Radio Orchestra, Grete Pedersen
Жанр: Classical
Страна-производитель диска: Sweden
Год издания диска: 2013
Издатель (лейбл): BIS
Номер по каталогу: BIS-SACD-1970
Дата записи: 2011, 2012
Аудиокодек: FLAC
Тип рипа: image+.cue
Битрейт аудио: lossless
Продолжительность: 57:44
Источник: собственный рип
Наличие сканов в содержимом раздачи: да
Треклист:
Fartein Valen (1887–1952)
[1] Ave Maria, Op. 4 (1915–21)
for soprano solo and orchestra
Olivier Messiaen (1908–92)
[2]-[6] Cinq rechants for 12 mixed voices a cappella (1948)
Anton von Webern (1883–1945)
[7] Entflieht auf leichten Kähnen, Op. 2 (1908)
for mixed choir a cappella
[8]-[9] Zwei Lieder, Op. 19 (1925–26)
for mixed choir, clarinet, bass clarinet, celesta, guitar and violin
Fartein Valen
[10] Hvad est du dog skiøn, Op. 12 (1930)
for mixed choir a cappella
[11] Kom regn fra det høie, Op. 25 (1936–37)
for women’s choir and clarinet
Alban Berg (1885–1935)
[12] Die Nachtigall (1907)
from Sieben frühe Lieder
arranged for 16 voices a cappella by Clytus Gottwald
Fartein Valen
[13] Der 121. Psalm (1911)
for choir and orchestra, with solo soprano and quartet (SATB)
Olivier Messiaen
[14] O sacrum convivium (1937)
for mixed choir a cappella
Исполнители:
Det Norske Solistkor (The Norwegian Soloists’ Choir)
Grete Pedersen
conductor
Berit Norbakken Solset soprano [Valen: Ave Maria, Der 121. Psalm]
Norwegian Radio Orchestra (KORK) [Valen: Ave Maria, Der 121. Psalm]
Members of the Oslo Sinfonietta [Webern: Zwei Lieder; Valen: Kom regn]

Лог создания рипа

Exact Audio Copy V1.0 beta 3 from 29. August 2011
EAC extraction logfile from 15. January 2015, 0:45
The Norwegian Soloists' Choir, Grete Pedersen / Refractions
Used drive : HL-DT-STDVDRAM GU70N Adapter: 0 ID: 0
Read mode : Secure
Utilize accurate stream : Yes
Defeat audio cache : Yes
Make use of C2 pointers : No
Read offset correction : 48
Overread into Lead-In and Lead-Out : No
Fill up missing offset samples with silence : Yes
Delete leading and trailing silent blocks : No
Null samples used in CRC calculations : Yes
Used interface : Native Win32 interface for Win NT & 2000
Used output format : User Defined Encoder
Selected bitrate : 128 kBit/s
Quality : High
Add ID3 tag : No
Command line compressor : C:\Program Files (x86)\Exact Audio Copy\Flac\flac.exe
Additional command line options : -V -8 -T "Date=%year%" -T "Genre=%genre%" %source%
TOC of the extracted CD
Track | Start | Length | Start sector | End sector
---------------------------------------------------------
1 | 0:00.00 | 5:33.11 | 0 | 24985
2 | 5:33.11 | 4:41.50 | 24986 | 46110
3 | 10:14.61 | 3:21.16 | 46111 | 61201
4 | 13:36.02 | 4:20.28 | 61202 | 80729
5 | 17:56.30 | 2:38.69 | 80730 | 92648
6 | 20:35.24 | 4:06.19 | 92649 | 111117
7 | 24:41.43 | 2:48.13 | 111118 | 123730
8 | 27:29.56 | 1:07.40 | 123731 | 128795
9 | 28:37.21 | 1:01.37 | 128796 | 133407
10 | 29:38.58 | 3:11.49 | 133408 | 147781
11 | 32:50.32 | 3:33.13 | 147782 | 163769
12 | 36:23.45 | 2:46.45 | 163770 | 176264
13 | 39:10.15 | 12:49.50 | 176265 | 233989
14 | 51:59.65 | 5:44.12 | 233990 | 259801
Range status and errors
Selected range
Filename C:\temp\BIS-SACD-1970 - Refractions - Det Norske Solistkor, Pedersen\Refractions.wav
Peak level 97.7 %
Extraction speed 2.2 X
Range quality 100.0 %
Test CRC 661D7DA0
Copy CRC 661D7DA0
Copy OK
No errors occurred
AccurateRip summary
Track 1 accurately ripped (confidence 3) [68D8EC25] (AR v2)
Track 2 accurately ripped (confidence 3) [F9BABF45] (AR v2)
Track 3 accurately ripped (confidence 3) [3E67FA70] (AR v2)
Track 4 accurately ripped (confidence 3) [4439F4ED] (AR v2)
Track 5 accurately ripped (confidence 3) [957AA166] (AR v2)
Track 6 accurately ripped (confidence 3) [694E3BB8] (AR v2)
Track 7 accurately ripped (confidence 3) [8194D45D] (AR v2)
Track 8 accurately ripped (confidence 3) [0847BC1F] (AR v2)
Track 9 accurately ripped (confidence 3) [DFC0C8D8] (AR v2)
Track 10 accurately ripped (confidence 3) [2A75B4F1] (AR v2)
Track 11 accurately ripped (confidence 3) [4F0D3BBF] (AR v2)
Track 12 accurately ripped (confidence 3) [E6B5008E] (AR v2)
Track 13 accurately ripped (confidence 3) [DF8E6E3B] (AR v2)
Track 14 accurately ripped (confidence 3) [713F0D92] (AR v2)
All tracks accurately ripped
End of status report
==== Log checksum FB6D3A0D459CE19D0A9C3982904D78A91734A722AFB8C09377F66A365AE1829D ====
[teatrix.ru].t21329.torrent 
Торрент: Зарегистрирован [ 2016-03-20 11:59 ] · E5DAFEB665308B08F667E256B69CC5DC9C86A6BA

Скачать .torrent

Скачать

37 KB

Статус: проверено
Скачан: 1 раз
Размер: 230 MB
terms.php



Быстрый ответ

Имя:

      
Для отправки сообщений необходимо включить JavaScript
Показать сообщения:    

Текущее время: 07-Дек 17:30

Часовой пояс: UTC + 3


Вы можете начинать темы
Вы можете отвечать на сообщения
Вы не можете редактировать свои сообщения
Вы не можете удалять свои сообщения
Вы не можете голосовать в опросах
Вы не можете прикреплять файлы к сообщениям
Вы можете скачивать файлы