(Chamber Music) Beethoven - String Trios op. 9 - F. P. Zimmermann, A. Tamestit, Ch. Poltera - 2011, FLAC (tracks+.cue) lossless


 

[Цитировать]

Beethoven - String Trios op. 9 - F. P. Zimmermann, A. Tamestit, Ch. Poltera
Жанр: Chamber Music
Страна-производитель диска: Sweden
Год издания диска: 2011
Издатель (лейбл): Bis
Номер по каталогу: 1857
Дата записи: 2011
Аудиокодек: FLAC
Тип рипа: tracks+.cue
Битрейт аудио: lossless
Продолжительность: 1:13:50
Источник: скачано с what.cd, релизер dtromp (merci!)
Важная информация: рип не мой, все благодарности оригинальному аплоудеру / Important Note: not my rip, all credits to the original uploader
Наличие сканов в содержимом раздачи: да
Треклист:
[01]-[04] String Trio in G major op. 9/1
[05]-[08] String Trio in D major op. 9/2
[09]-[12] String Trio in c minor op. 9/3
Исполнители:
Trio Zimmermann:
Frank Peter Zimmermann, violin
Antoine Tamestit, viola
Christian Poltéra, cello

Лог создания рипа

Exact Audio Copy V1.0 beta 3 from 29. August 2011
EAC extraction logfile from 24. June 2012, 7:25
Trio Zimmermann / Beethoven - String Trios Op.9
Used drive : PLEXTOR DVDR PX-860A Adapter: 0 ID: 0
Read mode : Secure
Utilize accurate stream : Yes
Defeat audio cache : Yes
Make use of C2 pointers : No
Read offset correction : 96
Overread into Lead-In and Lead-Out : No
Fill up missing offset samples with silence : Yes
Delete leading and trailing silent blocks : No
Null samples used in CRC calculations : Yes
Used interface : Native Win32 interface for Win NT & 2000
Gap handling : Appended to previous track
Used output format : User Defined Encoder
Selected bitrate : 1024 kBit/s
Quality : High
Add ID3 tag : No
Command line compressor : C:\Program Files\Exact Audio Copy\Flac\flac.exe
Additional command line options : -8 -V -T "ARTIST=%artist%" -T "TITLE=%title%" -T "ALBUM=%albumtitle%" -T "DATE=%year%" -T "TRACKNUMBER=%tracknr%" -T "GENRE=%genre%" -T "PERFORMER=%albuminterpret%" -T "COMPOSER=%composer%" %haslyrics%--tag-from-file=LYRICS="%lyricsfile%"%haslyrics% -T "ALBUMARTIST=%albumartist%" -T "DISCNUMBER=%cdnumber%" -T "TOTALDISCS=%totalcds%" -T "TOTALTRACKS=%numtracks%" -T "COMMENT=EAC Secure Mode, Test & Copy, AccurateRip, FLAC -8" %source% -o %dest%
TOC of the extracted CD
Track | Start | Length | Start sector | End sector
---------------------------------------------------------
1 | 0:00.00 | 12:35.40 | 0 | 56664
2 | 12:35.40 | 6:39.35 | 56665 | 86624
3 | 19:15.00 | 2:35.03 | 86625 | 98252
4 | 21:50.03 | 5:05.66 | 98253 | 121193
5 | 26:55.69 | 7:34.03 | 121194 | 155246
6 | 34:29.72 | 4:40.26 | 155247 | 176272
7 | 39:10.23 | 3:37.28 | 176273 | 192575
8 | 42:47.51 | 5:48.44 | 192576 | 218719
9 | 48:36.20 | 9:21.69 | 218720 | 260863
10 | 57:58.14 | 7:03.72 | 260864 | 292660
11 | 65:02.11 | 2:55.18 | 292661 | 305803
12 | 67:57.29 | 5:53.42 | 305804 | 332320
Track 1
Filename I:\DL\Trio Zimmermann - Beethoven - String Trios Op.9 (2011) [FLAC]\01 - String Trio No.1- I. Adagio.wav
Pre-gap length 0:00:02.00
Peak level 86.4 %
Extraction speed 5.6 X
Track quality 100.0 %
Test CRC 05B4D19E
Copy CRC 05B4D19E
Track not present in AccurateRip database
Copy OK
Track 2
Filename I:\DL\Trio Zimmermann - Beethoven - String Trios Op.9 (2011) [FLAC]\02 - II. Adagio.wav
Peak level 65.8 %
Extraction speed 6.4 X
Track quality 100.0 %
Test CRC 78AE530C
Copy CRC 78AE530C
Track not present in AccurateRip database
Copy OK
Track 3
Filename I:\DL\Trio Zimmermann - Beethoven - String Trios Op.9 (2011) [FLAC]\03 - III. Scherzo. Allegro.wav
Peak level 98.1 %
Extraction speed 5.0 X
Track quality 99.9 %
Test CRC FD52AAD5
Copy CRC FD52AAD5
Track not present in AccurateRip database
Copy OK
Track 4
Filename I:\DL\Trio Zimmermann - Beethoven - String Trios Op.9 (2011) [FLAC]\04 - IV. Presto.wav
Peak level 82.7 %
Extraction speed 6.9 X
Track quality 100.0 %
Test CRC 837F90A3
Copy CRC 837F90A3
Track not present in AccurateRip database
Copy OK
Track 5
Filename I:\DL\Trio Zimmermann - Beethoven - String Trios Op.9 (2011) [FLAC]\05 - String Trio No.2- I. Allegretto.wav
Peak level 85.8 %
Extraction speed 7.6 X
Track quality 100.0 %
Test CRC 8723E77E
Copy CRC 8723E77E
Track not present in AccurateRip database
Copy OK
Track 6
Filename I:\DL\Trio Zimmermann - Beethoven - String Trios Op.9 (2011) [FLAC]\06 - II. Andante quasi Allegretto.wav
Peak level 72.1 %
Extraction speed 7.5 X
Track quality 100.0 %
Test CRC 39D79A0E
Copy CRC 39D79A0E
Track not present in AccurateRip database
Copy OK
Track 7
Filename I:\DL\Trio Zimmermann - Beethoven - String Trios Op.9 (2011) [FLAC]\07 - III. Menuetto. Allegro.wav
Peak level 73.1 %
Extraction speed 7.4 X
Track quality 100.0 %
Test CRC 27CE6E7E
Copy CRC 27CE6E7E
Track not present in AccurateRip database
Copy OK
Track 8
Filename I:\DL\Trio Zimmermann - Beethoven - String Trios Op.9 (2011) [FLAC]\08 - IV. Rondo. Allegro.wav
Peak level 71.6 %
Extraction speed 7.6 X
Track quality 99.9 %
Test CRC C0C2D9E5
Copy CRC C0C2D9E5
Track not present in AccurateRip database
Copy OK
Track 9
Filename I:\DL\Trio Zimmermann - Beethoven - String Trios Op.9 (2011) [FLAC]\09 - String Trio No.3- I. Allegro con spirito.wav
Peak level 97.7 %
Extraction speed 8.8 X
Track quality 100.0 %
Test CRC 0165BD8D
Copy CRC 0165BD8D
Track not present in AccurateRip database
Copy OK
Track 10
Filename I:\DL\Trio Zimmermann - Beethoven - String Trios Op.9 (2011) [FLAC]\10 - II. Adagio con espressione.wav
Peak level 70.4 %
Extraction speed 8.5 X
Track quality 99.9 %
Test CRC 7CA75AF1
Copy CRC 7CA75AF1
Track not present in AccurateRip database
Copy OK
Track 11
Filename I:\DL\Trio Zimmermann - Beethoven - String Trios Op.9 (2011) [FLAC]\11 - III. Scherzo.wav
Peak level 67.6 %
Extraction speed 8.1 X
Track quality 100.0 %
Test CRC 9EFE8619
Copy CRC 9EFE8619
Track not present in AccurateRip database
Copy OK
Track 12
Filename I:\DL\Trio Zimmermann - Beethoven - String Trios Op.9 (2011) [FLAC]\12 - IV. Finale. Presto.wav
Peak level 74.9 %
Extraction speed 8.5 X
Track quality 99.9 %
Test CRC 39439363
Copy CRC 39439363
Track not present in AccurateRip database
Copy OK
None of the tracks are present in the AccurateRip database
No errors occurred
End of status report
---- CUETools DB Plugin V2.1.3
[CTDB TOCID: 9OMnj9BJycky4UO7.RgnIhFxuXQ-] disk not present in database, Submit result: 9OMnj9BJycky4UO7.RgnIhFxuXQ- has been uploaded
==== Log checksum DFF1D57BD42680E457515444B9C712CFE84389B9B8B3E22571440090BA036E2C ====

Содержание индексной карты (.CUE)

REM GENRE Classical
REM DATE 2011
REM DISCID AC114E0C
REM COMMENT "ExactAudioCopy v1.0b3"
CATALOG 7318599918570
PERFORMER "Trio Zimmermann"
TITLE "Beethoven - String Trios Op.9"
FILE "01 - String Trio No.1- I. Adagio.wav" WAVE
TRACK 01 AUDIO
TITLE "String Trio No.1: I. Adagio"
PERFORMER "Trio Zimmermann"
ISRC SEAES1157010
INDEX 01 00:00:00
FILE "02 - II. Adagio.wav" WAVE
TRACK 02 AUDIO
TITLE "II. Adagio"
PERFORMER "Trio Zimmermann"
ISRC SEAES1157020
INDEX 01 00:00:00
FILE "03 - III. Scherzo. Allegro.wav" WAVE
TRACK 03 AUDIO
TITLE "III. Scherzo. Allegro"
PERFORMER "Trio Zimmermann"
ISRC SEAES1157030
INDEX 01 00:00:00
FILE "04 - IV. Presto.wav" WAVE
TRACK 04 AUDIO
TITLE "IV. Presto"
PERFORMER "Trio Zimmermann"
ISRC SEAES1157040
INDEX 01 00:00:00
FILE "05 - String Trio No.2- I. Allegretto.wav" WAVE
TRACK 05 AUDIO
TITLE "String Trio No.2: I. Allegretto"
PERFORMER "Trio Zimmermann"
ISRC SEAES1157050
INDEX 01 00:00:00
FILE "06 - II. Andante quasi Allegretto.wav" WAVE
TRACK 06 AUDIO
TITLE "II. Andante quasi Allegretto"
PERFORMER "Trio Zimmermann"
ISRC SEAES1157060
INDEX 01 00:00:00
FILE "07 - III. Menuetto. Allegro.wav" WAVE
TRACK 07 AUDIO
TITLE "III. Menuetto. Allegro"
PERFORMER "Trio Zimmermann"
ISRC SEAES1157070
INDEX 01 00:00:00
FILE "08 - IV. Rondo. Allegro.wav" WAVE
TRACK 08 AUDIO
TITLE "IV. Rondo. Allegro"
PERFORMER "Trio Zimmermann"
ISRC SEAES1157080
INDEX 01 00:00:00
FILE "09 - String Trio No.3- I. Allegro con spirito.wav" WAVE
TRACK 09 AUDIO
TITLE "String Trio No.3: I. Allegro con spirito"
PERFORMER "Trio Zimmermann"
ISRC SEAES1157090
INDEX 01 00:00:00
FILE "10 - II. Adagio con espressione.wav" WAVE
TRACK 10 AUDIO
TITLE "II. Adagio con espressione"
PERFORMER "Trio Zimmermann"
ISRC SEAES1157100
INDEX 01 00:00:00
FILE "11 - III. Scherzo.wav" WAVE
TRACK 11 AUDIO
TITLE "III. Scherzo"
PERFORMER "Trio Zimmermann"
ISRC SEAES1157110
INDEX 01 00:00:00
FILE "12 - IV. Finale. Presto.wav" WAVE
TRACK 12 AUDIO
TITLE "IV. Finale. Presto"
PERFORMER "Trio Zimmermann"
ISRC SEAES1157120
INDEX 01 00:00:00



Показать сообщения:    

Текущее время: 06-Дек 19:04

Часовой пояс: UTC + 3


Вы не можете начинать темы
Вы не можете отвечать на сообщения
Вы не можете редактировать свои сообщения
Вы не можете удалять свои сообщения
Вы не можете голосовать в опросах
Вы не можете прикреплять файлы к сообщениям
Вы не можете скачивать файлы