Electro Dance (Tectonik) от Павла Коваленко 2011 года. (5 часть) / Electro Secrets 2011 об / Пятая серия Обучалок по Электро (Тектоник) [2011, Танцы - Электро дэнс (Тектоник), DVDRip, RUS] (Видеоурок)


Статистика раздачи [Обновить пиров]
Размер:  313 MB   |    Зарегистрирован:  8 месяцев 21 день   |    Скачан:  0 раз

Полного источника не было: Никогда

 
   
 
 
 

[Цитировать]

Electro Dance (Tectonik) от Павла Коваленко 2011 года. (5 часть) / Electro Secrets 2011 об / Пятая серия Обучалок по Электро (Тектоник)
Страна: Россия
Тематика: Танцы - Электро дэнс (Тектоник)
Тип раздаваемого материала: Видеоурок
Продолжительность: 00:41:22
Год выпуска: 2011
Язык: Русский
Перевод: Не требуется
Описание: Пятая серия обучающих уроков от Павла Коваленко.
Год выпуска 2011. Всего девять обучающих уроков с комментариями и советами, (а также БОНУС!) которые помогут как начинающим, так и более сильным танцорам. На этот раз добавлена обучалка связанная с движениями ног.
Всего вышло обучающих серий от Павла, это последняя Пятая. Более поздние серии можно найти на его странице вконтакте, либо в интернете.
http://vkontakte.ru/shaxteck
http://www.youtube.com/user/ShaxTeck
Доп. информация: Обучение очень удобно тем что после связок идет небольшой комментарий, помогающий быстрее понять тонкости связок.
Уверен БОНУСНЫЙ урок по обыгрышам будет полезен Танцорам любого уровня!
Доп. информация: почитать можно здесь:
http://shaxteck.livejournal.com/675.html
и здесь:
www.electrosecrets.ru
Качество : DVDRip
Формат: WMV
Видео кодек: Windows Media Video 9
Аудио кодек: Windows Media Audio
Видео: 640x480, 4:3, 25.00fps, 1000kbps
Аудио: 44100Hz, stereo, 128kbps

Отчет MediaInfo

General
Complete name : F:\Обучение от Павла Коваленко 5 часть\5.2 связка Снеговик.wmv
Format : Windows Media
File size : 30.1 MiB
Duration : 3mn 50s
Overall bit rate mode : Constant
Overall bit rate : 1 095 Kbps
Maximum Overall bit rate : 1 140 Kbps
Encoded date : UTC 2011-02-28 18:06:01.531
Application : Windows Movie Maker 2.1.4028.0
Video
ID : 2
Format : VC-1
Format profile : MP@ML
Codec ID : WMV3
Codec ID/Info : Windows Media Video 9
Codec ID/Hint : WMV3
Description of the codec : Windows Media Video 9
Duration : 3mn 50s
Bit rate mode : Constant
Bit rate : 1 000 Kbps
Width : 640 pixels
Height : 480 pixels
Display aspect ratio : 4:3
Frame rate : 25.000 fps
Bit depth : 8 bits
Scan type : Progressive
Compression mode : Lossy
Bits/(Pixel*Frame) : 0.130
Stream size : 27.5 MiB (91%)
Language : Russian
Audio
ID : 1
Format : WMA
Format version : Version 2
Codec ID : 161
Codec ID/Info : Windows Media Audio
Description of the codec : Windows Media Audio 9.2 - 128 kbps, 44 kHz, stereo (A/V) 1-pass CBR
Duration : 3mn 50s
Bit rate mode : Constant
Bit rate : 128 Kbps
Channel(s) : 2 channels
Sampling rate : 44.1 KHz
Bit depth : 16 bits
Stream size : 3.52 MiB (12%)
Language : Russian--General
Complete name : F:\Обучение от Павла Коваленко 5 часть\Electro Secrets by Shax Sochi.mp4
Format : MPEG-4
Format profile : Base Media / Version 2
Codec ID : mp42
File size : 11.6 MiB
Duration : 3mn 11s
Overall bit rate : 511 Kbps
Encoded date : UTC 2011-02-18 14:17:31
Tagged date : UTC 2011-02-18 14:17:31
gsst : 0
gstd : 191131
gssd : B4A7DD084MH1298129137037555
gshh : v4.cache5.c.youtube.com
Video
ID : 1
Format : AVC
Format/Info : Advanced Video Codec
Format profile : Baseline@L3.0
Format settings, CABAC : No
Format settings, ReFrames : 1 frame
Codec ID : avc1
Codec ID/Info : Advanced Video Coding
Duration : 3mn 11s
Bit rate mode : Variable
Bit rate : 409 Kbps
Maximum bit rate : 1 249 Kbps
Width : 640 pixels
Height : 360 pixels
Display aspect ratio : 16:9
Frame rate mode : Variable
Frame rate : 30.000 fps
Minimum frame rate : 29.412 fps
Maximum frame rate : 30.303 fps
Color space : YUV
Chroma subsampling : 4:2:0
Bit depth : 8 bits
Scan type : Progressive
Bits/(Pixel*Frame) : 0.059
Stream size : 9.32 MiB (80%)
Tagged date : UTC 2011-02-18 14:17:31
Audio
ID : 2
Format : AAC
Format/Info : Advanced Audio Codec
Format profile : LC
Codec ID : 40
Duration : 3mn 11s
Bit rate mode : Variable
Bit rate : 96.0 Kbps
Maximum bit rate : 113 Kbps
Channel(s) : 2 channels
Channel positions : Front: L R
Sampling rate : 44.1 KHz
Compression mode : Lossy
Stream size : 2.19 MiB (19%)
Title : (C) 2007 Google Inc. v08.13.2007.
Encoded date : UTC 2011-02-18 14:17:31
Tagged date : UTC 2011-02-18 14:17:31

Скриншоты


--
[teatrix.ru].t21333.torrent 
Торрент: Зарегистрирован [ 2016-03-20 12:02 ] · 8DD62B9A046BCFADF70FDF20FF79D37BA96B2827

Скачать .torrent

Скачать

13 KB

Статус: проверено
Скачан: 0 раз
Размер: 313 MB
terms.php



Быстрый ответ

Имя:

      
Для отправки сообщений необходимо включить JavaScript
Показать сообщения:    

Текущее время: 10-Дек 19:44

Часовой пояс: UTC + 3


Вы можете начинать темы
Вы можете отвечать на сообщения
Вы не можете редактировать свои сообщения
Вы не можете удалять свои сообщения
Вы не можете голосовать в опросах
Вы не можете прикреплять файлы к сообщениям
Вы можете скачивать файлы