(Classical, Chamber) Mozart - Violin Sonatas (Hilary Hahn, violin, Natalie Zhu, piano) - 2005, FLAC (image+.cue), lossless


 

[Цитировать]

Mozart - Violin Sonatas - Hahn, Zhu
Жанр: Classical, Chamber
Страна-производитель диска: EU
Год издания диска: 2005
Издатель (лейбл): Deutsche Grammophon
Номер по каталогу: 00289 477 5572
Дата записи: 02 & 11/2004
Аудиокодек: FLAC
Тип рипа: image+.cue
Битрейт аудио: lossless
Продолжительность: 69.59
Источник: собственный рип
Наличие сканов в содержимом раздачи: да
Исполнители: Hilary Hahn, violin, Natalie Zhu, piano

Треклист:

Sonata for Piano and Violin in F major, K. 376
01. I. Allegro
02. II. Andante
03. III. Rondo (Allegretto grazioso)
Sonata for Piano and Violin in G major, K. 301
04. I. Allegro con spirito
05. II. Allegro
Sonata for Piano and Violin in E minor, K. 304
06. I. Allegro
07. II. Tempo di minuetto
Sonata for Piano and Violin in A major, K. 526
08. I. Allegro molto
09. II. Andante
10. III. Presto
Total 69.59

Лог создания рипа:

Exact Audio Copy V1.0 beta 3 from 29. August 2011
Отчёт EAC об извлечении, выполненном 29. мая 2015, 20:53
Hilary Hahn, Natalie Zhu / Mozart - Violinsonaten KV 301, 304, 376 & 526
Дисковод: Optiarc DVD RW AD-7260S Adapter: 0 ID: 1
Режим чтения : Достоверность
Использование точного потока : Да
Отключение кэша аудио : Да
Использование указателей C2 : Нет
Коррекция смещения при чтении : 48
Способность читать области Lead-in и Lead-out : Нет
Заполнение пропущенных сэмплов тишиной : Да
Удаление блоков с тишиной в начале и конце : Нет
При вычислениях CRC использовались нулевые сэмплы : Да
Интерфейс : Встроенный Win32-интерфейс для Win NT/2000
Выходной формат : Пользовательский кодировщик
Выбранный битрейт : 896 kBit/s
Качество : Высокий
Добавление ID3-тега : Нет
Утилита сжатия : C:\Program Files\FLAC Frontend\tools\flac.exe
Дополнительные параметры : -V -8 -T "Date=%year%" -T "Genre=%genre%" %source%
TOC извлечённого CD
Трек | Старт | Длительность | Начальный сектор | Конечный сектор
---------------------------------------------------------------------
1 | 0:00.00 | 5:07.23 | 0 | 23047
2 | 5:07.23 | 6:08.73 | 23048 | 50720
3 | 11:16.21 | 6:26.22 | 50721 | 79692
4 | 17:42.43 | 8:34.14 | 79693 | 118256
5 | 26:16.57 | 5:47.47 | 118257 | 144328
6 | 32:04.29 | 7:03.02 | 144329 | 176055
7 | 39:07.31 | 5:43.02 | 176056 | 201782
8 | 44:50.33 | 7:09.74 | 201783 | 234031
9 | 52:00.32 | 10:50.31 | 234032 | 282812
10 | 62:50.63 | 7:08.12 | 282813 | 314924
Характеристики диапазона извлечения и сообщения об ошибках
Выбранный диапазон
Имя файла D:\EAC\Мои раздачи\Mozart - Violin Sonatas - Hahn, Zhu\Hilary Hahn, Natalie Zhu - Mozart - Violinsonaten KV 301, 304, 376 & 526.wav
Пиковый уровень 97.4 %
Скорость извлечения 4.4 X
Качество диапазона 100.0 %
CRC теста 130AE1FC
CRC копии 130AE1FC
Копирование... OK
Ошибок не произошло
AccurateRip: сводка
Трек 1 : извлечено точно (доверие 105) [C1E4B0D3] (AR v2)
Трек 2 : извлечено точно (доверие 104) [D2011725] (AR v2)
Трек 3 : извлечено точно (доверие 104) [49B10E7F] (AR v2)
Трек 4 : извлечено точно (доверие 104) [4DF5D1F0] (AR v2)
Трек 5 : извлечено точно (доверие 103) [BC39A1A1] (AR v2)
Трек 6 : извлечено точно (доверие 103) [33921274] (AR v2)
Трек 7 : извлечено точно (доверие 101) [96D4558A] (AR v2)
Трек 8 : извлечено точно (доверие 103) [6CF44FDF] (AR v2)
Трек 9 : извлечено точно (доверие 103) [8E0BC003] (AR v2)
Трек 10 : извлечено точно (доверие 100) [C1364429] (AR v2)
Все треки извлечены точно
Конец отчёта
==== Контрольная сумма отчёта 289277692FFE7B3E705F5F3C15ABF515B3DCDF8E241A8C618279E33ED2A84B4D ====



Показать сообщения:    

Текущее время: 18-Янв 02:34

Часовой пояс: UTC + 3


Вы не можете начинать темы
Вы не можете отвечать на сообщения
Вы не можете редактировать свои сообщения
Вы не можете удалять свои сообщения
Вы не можете голосовать в опросах
Вы не можете прикреплять файлы к сообщениям
Вы не можете скачивать файлы