(Vocal Music) Consort of Musicke - Amorous Dialogues [Emma Kirkby, Martyn Hill - Anthony Rooley) - 2010, MP3 (image+.cue) 320 kbps


Статистика раздачи [Обновить пиров]
Размер:  131 MB   |    Зарегистрирован:  8 месяцев 20 дней   |    Скачан:  0 раз

Полного источника не было: Никогда

 
   
 
 
 

[Цитировать]

Consort of Musicke - Amorous Dialogues
Жанр: Vocal Music
Страна-производитель диска: UK
Год издания: 2010
Издатель (лейбл): Decca
Номер по каталогу: 480 4144
Дата записи: 1979
Аудиокодек: MP3
Тип рипа: image+.cue
Битрейт аудио: 320 kbps
Продолжительность: 53'54
Источник: WEB
Наличие сканов в содержимом раздачи: да
Треклист:
1. John Bartlet: Whither runneth my sweeetheart?
Alfonso Ferrabosco II
2. Fayre cruell Nimph
3. Tell me, O love
4. Thomas Morley: Who is it that this dark night?
5. Thomas Ford: Shut not sweet breast
Henry Lawes
6. A dialogue on a kiss
7. A dialogue betwixt time and a pilgrime
8. Marco da Gagliano: Bel Pastor
9. Sigismondo D'India: Da l'onde del mio pianto
Benedetto Ferrari
10. Dialogo a due, Fileno e Lidia: Amar io to consiglio
11. Amanti io vi so dire
12. Nicolo Fontei: Dio ti salvi, pastor
13. Claudio Monteverdi: Bel Pastor
Исполнители:
Emma Kirkby, soprano
Martyn Hill, tenor
Trevor Jones, bass viol 1
Alison Crum, bass viol 2
Anthony Rooly, lute
Содержание индексной карты (.CUE)
REM DISCID B80CA00D
REM COMMENT ExactAudioCopy v1.0b1
PERFORMER "Consort of Musicke - Kirkby, Hill, Rooley"
TITLE "Amorous Dialogues"
FILE "Amorous Dialogues - Consort of Musicke, Rooley [ Kirkby, Hill].mp3" WAVE
TRACK 01 AUDIO
TITLE "John Bartlet: Whither runneth my sweeetheart?"
INDEX 01 00:00:00
TRACK 02 AUDIO
TITLE "Alfonso Ferrabosco II: Fayre cruell Nimph"
INDEX 01 02:04:03
TRACK 03 AUDIO
TITLE "Tell me, O love"
INDEX 01 04:19:47
TRACK 04 AUDIO
TITLE "Thomas Morley: Who is it that this dark night?"
INDEX 01 07:17:58
TRACK 05 AUDIO
TITLE "Thomas Ford: Shut not sweet breast"
INDEX 01 15:10:64
TRACK 06 AUDIO
TITLE "Henry Lawes: A dialogue on a kiss"
INDEX 01 18:05:51
TRACK 07 AUDIO
TITLE "A dialogue betwixt time and a pilgrime"
INDEX 01 21:33:74
TRACK 08 AUDIO
TITLE "Marco da Gagliano: Bel Pastor"
INDEX 01 23:52:26
TRACK 09 AUDIO
TITLE "Sigismondo D'India: Da l'onde del mio pianto"
INDEX 01 27:04:00
TRACK 10 AUDIO
TITLE "Benedetto Ferrari: Dialogo a due, Fileno e Lidia: Amar io to consiglio"
INDEX 01 31:42:74
TRACK 11 AUDIO
TITLE "Amanti io vi so dire"
INDEX 01 41:35:20
TRACK 12 AUDIO
TITLE "Nicolo Fontei: Dio ti salvi, pastor"
INDEX 01 46:11:04
TRACK 13 AUDIO
TITLE "Claudio Monteverdi: Bel Pastor"
INDEX 01 49:04:23
[teatrix.ru].t21336.torrent 
Торрент: Зарегистрирован [ 2016-03-20 11:59 ] · B98035E7C776BA3BE3BA53CB8162346690DF5653

Скачать .torrent

Скачать

11 KB

Статус: проверено
Скачан: 0 раз
Размер: 131 MB
terms.php



Быстрый ответ

Имя:

      
Для отправки сообщений необходимо включить JavaScript
Показать сообщения:    

Текущее время: 10-Дек 11:56

Часовой пояс: UTC + 3


Вы можете начинать темы
Вы можете отвечать на сообщения
Вы не можете редактировать свои сообщения
Вы не можете удалять свои сообщения
Вы не можете голосовать в опросах
Вы не можете прикреплять файлы к сообщениям
Вы можете скачивать файлы