(Classical) Antonin Dvorak - Rusalka - Cheryl Barker, Rosario La Spina, Bruce Martin, Anne-Marie Owens, Barry Ryan, Sian Pendry, Elizabeth Whitehouse; Opera Australia, Richard Hickox - 2008, FLAC (image+.cue) lossless


 

[Цитировать]

Antonín Dvořák - Rusalka - Cheryl Barker, Rosario La Spina, Bruce Martin, Anne-Marie Owens, Barry Ryan, Sian Pendry, Elizabeth Whitehouse; Opera Australia, Richard Hickox
Жанр: Classical
Страна-производитель диска: UK
Год издания диска: 2008
Издатель (лейбл): Chandos Records
Номер по каталогу: CHAN 10449(3)
Дата записи: 2007
Аудиокодек: FLAC
Тип рипа: image+.cue
Битрейт аудио: lossless
Продолжительность: 152:37
Источник: собственный рип
Наличие сканов в содержимом раздачи: да
Треклист:
Antonín Dvořák (1841-1904)
Rusalka
An opera in three acts
Libretto by Jaroslav Kvapil, after Undine by Friedrich Heinrich de la Motte Fouqué
CD1
[1]-[13] Act I
CD2
[1]-[10] Act II
CD3
[1]-[12] Act III
Исполнители:
Wood Nymphs:
Sarah Crane soprano
Taryn Fiebig soprano
Dominica Matthews mezzo-soprano
Water Sprite Bruce Martin bass
Rusalka Cheryl Barker soprano
Ježibaba Anne-Marie Owens mezzo-soprano
Prince Rosario La Spina tenor
Gamekeeper / Huntsman Barry Ryan baritone
Kitchen Boy Sian Pendry soprano
Foreign Princess Elizabeth Whitehouse soprano
Opera Australia Chorus
Australian Opera and Ballet Orchestra
Richard Hickox

Лог создания рипа: CD1

Exact Audio Copy V1.0 beta 3 from 29. August 2011
EAC extraction logfile from 22. May 2015, 0:36
Opera Australia, Richard Hickox / Dvorak - Rusalka - Act I
Used drive : HL-DT-STDVDRAM GU70N Adapter: 0 ID: 0
Read mode : Secure
Utilize accurate stream : Yes
Defeat audio cache : Yes
Make use of C2 pointers : No
Read offset correction : 48
Overread into Lead-In and Lead-Out : No
Fill up missing offset samples with silence : Yes
Delete leading and trailing silent blocks : No
Null samples used in CRC calculations : Yes
Used interface : Native Win32 interface for Win NT & 2000
Used output format : User Defined Encoder
Selected bitrate : 128 kBit/s
Quality : High
Add ID3 tag : No
Command line compressor : C:\Program Files (x86)\Exact Audio Copy\Flac\flac.exe
Additional command line options : -V -8 -T "Date=%year%" -T "Genre=%genre%" %source%
TOC of the extracted CD
Track | Start | Length | Start sector | End sector
---------------------------------------------------------
1 | 0:00.00 | 4:22.69 | 0 | 19718
2 | 4:22.69 | 4:28.60 | 19719 | 39878
3 | 8:51.54 | 3:24.21 | 39879 | 55199
4 | 12:16.00 | 4:17.54 | 55200 | 74528
5 | 16:33.54 | 4:31.18 | 74529 | 94871
6 | 21:04.72 | 4:50.30 | 94872 | 116651
7 | 25:55.27 | 3:19.43 | 116652 | 131619
8 | 29:14.70 | 3:02.00 | 131620 | 145269
9 | 32:16.70 | 6:24.31 | 145270 | 174100
10 | 38:41.26 | 3:50.35 | 174101 | 191385
11 | 42:31.61 | 4:53.41 | 191386 | 213401
12 | 47:25.27 | 4:31.00 | 213402 | 233726
13 | 51:56.27 | 2:09.02 | 233727 | 243403
Range status and errors
Selected range
Filename C:\temp\CHAN_10449(3) - Dvorak - Rusalka\CD1\Dvorak - Rusalka - Act I.wav
Peak level 96.9 %
Extraction speed 5.0 X
Range quality 100.0 %
Test CRC 66F0059B
Copy CRC 66F0059B
Copy OK
No errors occurred
AccurateRip summary
Track 1 accurately ripped (confidence 2) [887695A6] (AR v2)
Track 2 accurately ripped (confidence 2) [758A071F] (AR v2)
Track 3 accurately ripped (confidence 2) [CF660DE1] (AR v2)
Track 4 accurately ripped (confidence 2) [D9E85C50] (AR v2)
Track 5 accurately ripped (confidence 2) [EC55AEE2] (AR v2)
Track 6 accurately ripped (confidence 2) [C277ABFF] (AR v2)
Track 7 accurately ripped (confidence 2) [617CBE28] (AR v2)
Track 8 accurately ripped (confidence 2) [D4180CEA] (AR v2)
Track 9 accurately ripped (confidence 2) [508B1107] (AR v2)
Track 10 accurately ripped (confidence 2) [9413C762] (AR v2)
Track 11 accurately ripped (confidence 2) [D941699F] (AR v2)
Track 12 accurately ripped (confidence 2) [5FE6FF9C] (AR v2)
Track 13 accurately ripped (confidence 2) [23D355E5] (AR v2)
All tracks accurately ripped
End of status report
==== Log checksum D4747BDCCFA665B4C9A6AAF1B67CFE325DA80858EB446E08F53AE60179C1D4B3 ====

Лог создания рипа: CD2

Exact Audio Copy V1.0 beta 3 from 29. August 2011
EAC extraction logfile from 22. May 2015, 1:40
Opera Australia, Richard Hickox / Dvorak - Rusalka - Act II
Used drive : HL-DT-STDVDRAM GU70N Adapter: 0 ID: 0
Read mode : Secure
Utilize accurate stream : Yes
Defeat audio cache : Yes
Make use of C2 pointers : No
Read offset correction : 48
Overread into Lead-In and Lead-Out : No
Fill up missing offset samples with silence : Yes
Delete leading and trailing silent blocks : No
Null samples used in CRC calculations : Yes
Used interface : Native Win32 interface for Win NT & 2000
Used output format : User Defined Encoder
Selected bitrate : 128 kBit/s
Quality : High
Add ID3 tag : No
Command line compressor : C:\Program Files (x86)\Exact Audio Copy\Flac\flac.exe
Additional command line options : -V -8 -T "Date=%year%" -T "Genre=%genre%" %source%
TOC of the extracted CD
Track | Start | Length | Start sector | End sector
---------------------------------------------------------
1 | 0:00.00 | 4:06.54 | 0 | 18503
2 | 4:06.54 | 3:48.51 | 18504 | 35654
3 | 7:55.30 | 5:07.57 | 35655 | 58736
4 | 13:03.12 | 3:46.61 | 58737 | 75747
5 | 16:49.73 | 6:51.28 | 75748 | 106600
6 | 23:41.26 | 4:09.25 | 106601 | 125300
7 | 27:50.51 | 5:58.58 | 125301 | 152208
8 | 33:49.34 | 2:54.25 | 152209 | 165283
9 | 36:43.59 | 3:19.30 | 165284 | 180238
10 | 40:03.14 | 3:38.37 | 180239 | 196625
Range status and errors
Selected range
Filename C:\temp\CHAN_10449(3) - Dvorak - Rusalka\CD2\Dvorak - Rusalka - Act II.wav
Peak level 99.5 %
Extraction speed 1.8 X
Range quality 100.0 %
Test CRC BD422363
Copy CRC BD422363
Copy OK
No errors occurred
AccurateRip summary
Track 1 accurately ripped (confidence 1) [BEF8278F] (AR v2)
Track 2 accurately ripped (confidence 1) [D391CD2C] (AR v2)
Track 3 accurately ripped (confidence 1) [C3477B03] (AR v2)
Track 4 accurately ripped (confidence 2) [ABB6398B] (AR v2)
Track 5 accurately ripped (confidence 2) [777DEB08] (AR v2)
Track 6 accurately ripped (confidence 2) [32DC8E49] (AR v2)
Track 7 accurately ripped (confidence 2) [77C91014] (AR v2)
Track 8 accurately ripped (confidence 2) [4C9762CA] (AR v2)
Track 9 accurately ripped (confidence 2) [5826203C] (AR v2)
Track 10 accurately ripped (confidence 2) [FA2CFAF8] (AR v2)
All tracks accurately ripped
End of status report
==== Log checksum EC1C669C0EC4D6130A2E9F7FCF69F253C407E813E81D17107542735655C0994A ====

Лог создания рипа: CD3

Exact Audio Copy V1.0 beta 3 from 29. August 2011
EAC extraction logfile from 23. May 2015, 0:11
Opera Australia, Richard Hickox / Dvorak - Rusalka - Act III
Used drive : HL-DT-STDVDRAM GU70N Adapter: 0 ID: 0
Read mode : Secure
Utilize accurate stream : Yes
Defeat audio cache : Yes
Make use of C2 pointers : No
Read offset correction : 48
Overread into Lead-In and Lead-Out : No
Fill up missing offset samples with silence : Yes
Delete leading and trailing silent blocks : No
Null samples used in CRC calculations : Yes
Used interface : Native Win32 interface for Win NT & 2000
Used output format : User Defined Encoder
Selected bitrate : 128 kBit/s
Quality : High
Add ID3 tag : No
Command line compressor : C:\Program Files (x86)\Exact Audio Copy\Flac\flac.exe
Additional command line options : -V -8 -T "Date=%year%" -T "Genre=%genre%" %source%
TOC of the extracted CD
Track | Start | Length | Start sector | End sector
---------------------------------------------------------
1 | 0:00.00 | 3:59.10 | 0 | 17934
2 | 3:59.10 | 4:18.32 | 17935 | 37316
3 | 8:17.42 | 3:06.60 | 37317 | 51326
4 | 11:24.27 | 5:08.63 | 51327 | 74489
5 | 16:33.15 | 4:01.17 | 74490 | 92581
6 | 20:34.32 | 3:55.32 | 92582 | 110238
7 | 24:29.64 | 4:07.62 | 110239 | 128825
8 | 28:37.51 | 7:45.49 | 128826 | 163749
9 | 36:23.25 | 4:47.00 | 163750 | 185274
10 | 41:10.25 | 2:21.10 | 185275 | 195859
11 | 43:31.35 | 5:23.41 | 195860 | 220125
12 | 48:55.01 | 5:59.34 | 220126 | 247084
Range status and errors
Selected range
Filename C:\temp\CHAN_10449(3) - Dvorak - Rusalka\CD3\Dvorak - Rusalka - Act III.wav
Peak level 98.8 %
Extraction speed 5.0 X
Range quality 100.0 %
Test CRC F3CB1F73
Copy CRC F3CB1F73
Copy OK
No errors occurred
AccurateRip summary
Track 1 accurately ripped (confidence 2) [4E6DA466] (AR v2)
Track 2 accurately ripped (confidence 2) [ED41B185] (AR v2)
Track 3 accurately ripped (confidence 2) [F32F72AA] (AR v2)
Track 4 accurately ripped (confidence 2) [C0D542D2] (AR v2)
Track 5 accurately ripped (confidence 2) [15338D49] (AR v2)
Track 6 accurately ripped (confidence 2) [0617335D] (AR v2)
Track 7 accurately ripped (confidence 2) [FC95304D] (AR v2)
Track 8 accurately ripped (confidence 2) [BE6B0494] (AR v2)
Track 9 accurately ripped (confidence 2) [81DFEC04] (AR v2)
Track 10 accurately ripped (confidence 2) [94029617] (AR v2)
Track 11 accurately ripped (confidence 2) [A1437198] (AR v2)
Track 12 accurately ripped (confidence 2) [4304B195] (AR v2)
All tracks accurately ripped
End of status report
==== Log checksum ED4366A902EBF89B91F8662CD167B0B847F6D7ADBDEDE44760D9869FA1080CF1 ====



Показать сообщения:    

Текущее время: 07-Дек 23:17

Часовой пояс: UTC + 3


Вы не можете начинать темы
Вы не можете отвечать на сообщения
Вы не можете редактировать свои сообщения
Вы не можете удалять свои сообщения
Вы не можете голосовать в опросах
Вы не можете прикреплять файлы к сообщениям
Вы не можете скачивать файлы