[TR24][OF] Franz Schubert - Symphony No.9 In C Major, D. 944 "The Great" (Orchestra Mozart & Claudio Abbado) - 2015 (Classical)

DL-List and Torrent activity [Update пиров]
Size:  1.05 GB   |    Registered:  7 months 5 days   |    Completed:  0 times

Seeder not seen: Never



Franz Schubert
The "Great" C Major Symphony, D. 944
Orchestra Mozart & Claudio Abbado
- Год издания: 2015
Жанр: Classical
Издатель (лейбл): Deutsche Grammophon
Продолжительность: 01:02:45
Наличие сканов: Sleeve, Digital Booklet- -
Franz Schubert (1797-1828)
Symphony No.9 In C Major, D. 944 "The Great"
01. 1. Andante - Allegro ma non troppo (16:28)
02. 2. Andante con moto (15:28)
03. 3. Scherzo (Allegro vivace) (14:43)
04. 4. Allegro vivace (16:05)
Orchestra Mozart
Claudio Abbado, conductor
Контейнер: FLAC (*.flac)
Тип рипа: tracks
Разрядность: 24bit / 96kHz
Количество каналов: 2.0

О релизе
Announcing a rare new album conducted by Maestro Abbado – still much missed by many in the concert hall and the studio. Schubert remained one of Abbado’s favourite composers throughout his life and since his first performance in Den Haag in 1966 he returned again and again to the “Great“ C Major Symphony.
This very special album combines live performances with Abbado’s beloved Orchestra Mozart, recorded in September 2011. Twenty-five years after his first recording with the Chamber Orchestra of Europe, Abbado's new interpretation of this symphony reveals a wealth of new details, making it his definitive take on the work.
“This is unmistakably a performance that balances Schubert’s last completed symphony right on the cusp of Romanticism. So much of the detail and the way Abbado shapes it here looks further into the 19th century and towards Bruckner...what his performance conveys most powerfully is the sense of a symphony bursting at its classical seams and pushing its expressive language as far as it will go.” (The Guardian)

ОтчётыДинамический диапазон

foobar2000 1.2.2 / Dynamic Range Meter 1.1.1
log date: 2015-06-03 10:11:24
Analyzed: Claudio Abbado, Orchestra Mozart / Schubert: The "Great" C Major Symphony
DR Peak RMS Duration Track
DR12 -0.92 dB -17.94 dB 16:28 ?-Symphony No.9 In C Major, D. 944 "The Great": 1. Andante - Allegro ma non troppo
DR15 -0.70 dB -22.47 dB 15:28 ?-Symphony No.9 In C Major, D. 944 "The Great": 2. Andante con moto
DR13 -2.08 dB -20.44 dB 14:43 ?-Symphony No.9 In C Major, D. 944 "The Great": 3. Scherzo (Allegro vivace)
DR12 -0.20 dB -17.77 dB 16:05 ?-Symphony No.9 In C Major, D. 944 "The Great": 4. Allegro vivace
Number of tracks: 4
Official DR value: DR13
Samplerate: 96000 Hz
Channels: 2
Bits per sample: 24
Bitrate: 2461 kbps
Codec: FLAC

Скриншот спектра частот

Доп. информация

При скачивании, если необходимо, переименуйте папку, в которой будет находиться альбомБольшая просьба к скачавшим поддерживать раздачу! Помогайте другим, ведь вам тоже может понадобиться помощь!Не забываем говорить "Спасибо"!Комментарии приветствуются!
Torrent: Registered [ 2016-03-20 11:59 ] · E90105AE1A78137F891C2D2C6452B4B19B4CD471

Download .torrent


11 KB

Status: checked
Completed: 0 times
Size: 1.05 GB

Quick Reply


Heads necessary to send messages to enable JavaScript
Display posts:    

Current time is: 26-Oct 05:15

All times are UTC + 3

You can post new topics in this forum
You can reply to topics in this forum
You cannot edit your posts in this forum
You cannot delete your posts in this forum
You cannot vote in polls in this forum
You cannot attach files in this forum
You can download files in this forum