(Classical, Chamber) Luigi Alberto Bianchi plays the 1595 Amati viola - Paganini, Kreisler, Sarasate, Bloch, Debussy, Ravel (L. A. Bianchi, violin, Bruno Canino, piano, Berlin RIAS-Symphonie-Orchester, Jacques Delacote, FLAC (image+.cue), lossless


 

[Цитировать]

Luigi Alberto Bianchi plays the 1595 Amati viola
Жанр: Classical, Chamber
Страна-производитель диска: Austria
Год издания диска: ?
Издатель (лейбл): Dynamic S.r.L.
Номер по каталогу: CDS 259
Дата записи: 1973
Аудиокодек: FLAC
Тип рипа: image+.cue
Битрейт аудио: lossless
Продолжительность: 58.26
Источник: собственный рип
Наличие сканов в содержимом раздачи: да
Исполнители: Luigi Alberto Bianchi, violin, Bruno Canino, piano
Berlin RIAS-Symphonie-Orchester, Jacques Delacote

Треклист:

01. Paganini - Sonata per la Gran Viola
02. Paganini - La Campanella
03. Kreisler - Liebesleid
04. Kreisler - Liebesfreud
05. Sarasate - Playera
06. Sarasate - Malaguena
07. Sarasate - Romanza Andalusa
08. Sarasate - Zapataedo
09. Bloch - Nigun
10. Debussy - La fille a cheveux de lin
11. Ravel - Habanera
Total 58.26

Лог создания рипа:

Exact Audio Copy V1.0 beta 3 from 29. August 2011
Отчёт EAC об извлечении, выполненном 30. мая 2015, 23:06
Luigi Alberto Bianchi / Paganini - Gran Viola
Дисковод: Optiarc DVD RW AD-7260S Adapter: 0 ID: 1
Режим чтения : Достоверность
Использование точного потока : Да
Отключение кэша аудио : Да
Использование указателей C2 : Нет
Коррекция смещения при чтении : 48
Способность читать области Lead-in и Lead-out : Нет
Заполнение пропущенных сэмплов тишиной : Да
Удаление блоков с тишиной в начале и конце : Нет
При вычислениях CRC использовались нулевые сэмплы : Да
Интерфейс : Встроенный Win32-интерфейс для Win NT/2000
Выходной формат : Пользовательский кодировщик
Выбранный битрейт : 896 kBit/s
Качество : Высокий
Добавление ID3-тега : Нет
Утилита сжатия : C:\Program Files\FLAC Frontend\tools\flac.exe
Дополнительные параметры : -V -8 -T "Date=%year%" -T "Genre=%genre%" %source%
TOC извлечённого CD
Трек | Старт | Длительность | Начальный сектор | Конечный сектор
---------------------------------------------------------------------
1 | 0:00.00 | 13:09.50 | 0 | 59224
2 | 13:09.50 | 5:27.05 | 59225 | 83754
3 | 18:36.55 | 3:27.57 | 83755 | 99336
4 | 22:04.37 | 3:45.40 | 99337 | 116251
5 | 25:50.02 | 4:50.43 | 116252 | 138044
6 | 30:40.45 | 5:16.47 | 138045 | 161791
7 | 35:57.17 | 5:09.08 | 161792 | 184974
8 | 41:06.25 | 3:43.62 | 184975 | 201761
9 | 44:50.12 | 7:51.03 | 201762 | 237089
10 | 52:41.15 | 2:50.17 | 237090 | 249856
11 | 55:31.32 | 2:52.60 | 249857 | 262816
Характеристики диапазона извлечения и сообщения об ошибках
Выбранный диапазон
Имя файла D:\EAC\Мои раздачи\Paganini - Gran Viola - Luigi Alberto Bianchi\Luigi Alberto Bianchi - Paganini - Gran Viola.wav
Пиковый уровень 94.1 %
Скорость извлечения 4.0 X
Качество диапазона 99.9 %
CRC теста 2FC3ED4D
CRC копии 2FC3ED4D
Копирование... OK
Ошибок не произошло
AccurateRip: сводка
Трек 1 точность не определена (достоверность 1) [EBB2CCE4], AccurateRip вернул [1507D103] (AR v2)
Трек 2 точность не определена (достоверность 1) [D78EB5AE], AccurateRip вернул [2C4CEE35] (AR v2)
Трек 3 точность не определена (достоверность 1) [EB306887], AccurateRip вернул [D2883966] (AR v2)
Трек 4 точность не определена (достоверность 1) [FE7F77C6], AccurateRip вернул [8A654429] (AR v2)
Трек 5 точность не определена (достоверность 1) [F6782CC7], AccurateRip вернул [59423794] (AR v2)
Трек 6 точность не определена (достоверность 1) [B4B132A2], AccurateRip вернул [E69C5F9F] (AR v2)
Трек 7 точность не определена (достоверность 1) [FD8D011D], AccurateRip вернул [580B8DB9] (AR v2)
Трек 8 точность не определена (достоверность 1) [3C7E88AE], AccurateRip вернул [DF339AE0] (AR v2)
Трек 9 точность не определена (достоверность 1) [D34C4511], AccurateRip вернул [A9B83D9F] (AR v2)
Трек 10 точность не определена (достоверность 1) [65D47493], AccurateRip вернул [99FF4515] (AR v2)
Трек 11 точность не определена (достоверность 1) [5AC5EA16], AccurateRip вернул [F9894D2D] (AR v2)
Ни один трек не прошёл проверки на точность
В вашей базе может быть иной вариант штамповки диска
Конец отчёта
==== Контрольная сумма отчёта 75636CAE45060A06C91B145CF66EE3E512446EE394E92E66FD1FE34C8AE83855 ====



Показать сообщения:    

Текущее время: 10-Дек 08:02

Часовой пояс: UTC + 3


Вы не можете начинать темы
Вы не можете отвечать на сообщения
Вы не можете редактировать свои сообщения
Вы не можете удалять свои сообщения
Вы не можете голосовать в опросах
Вы не можете прикреплять файлы к сообщениям
Вы не можете скачивать файлы