Хип-хоп драйв координация стиль [2010, Россия, TvRip]


Статистика раздачи [Обновить пиров]
Размер:  5.57 GB   |    Зарегистрирован:  8 месяцев 16 дней   |    Скачан:  0 раз

Полного источника не было: Никогда

 
   
 
 
 

[Цитировать]

Хип-хоп_драйв_координация_стиль
Страна: Россия
Год выпуска: 2010
Продолжительность: 676 мин.
Перевод: Не требуется
Перевод 2: Не требуется
Перевод 3: Не требуется
Язык: Русский
Русские субтитры: нет
язык субтитров: -
Описание: 13 занятий по 52 минуты
Качество видео: TvRip
Формат видео: MP4
Видео: 720*576, 800kbps, 25 frames/sec, MPEG-4 AVC
Аудио: 160 kbps, 48 кГц, 2 ch, aac

Скриншоты

MediaInfo

Общее
Полное имя : C:\Users\Галя\Desktop\раздача\хип-хоп со Светланой Литвиновой (6).MP4
Формат : MPEG-4
Профиль формата : Base Media
Идентификатор кодека : isom
Размер файла : 485 Мбайт
Продолжительность : 52 м.
Режим общего битрейта : Переменный
Общий поток : 1303 Кбит/сек
Дата кодирования : UTC 2011-05-26 11:44:56
Дата пометки : UTC 2011-05-26 11:44:56
Программа кодирования : Lavf51.12.1
Видео
Идентификатор : 1
Формат : AVC
Формат/Информация : Advanced Video Codec
Профиль формата : Baseline@L3.1
Параметр CABAC формата : Нет
Параметр ReFrames формата : 1 кадр
Параметр GOP формата : M=1, N=12
Идентификатор кодека : avc1
Идентификатор кодека/Информация : Advanced Video Coding
Продолжительность : 52 м.
Битрейт : 1138 Кбит/сек
Ширина : 720 пикселей
Высота : 576 пикселей
Соотношение сторон : 4:3
Режим частоты кадров : Постоянный
Частота кадров : 25,000 кадров/сек
Стандарт вещания : PAL
Цветовое пространство : YUV
Субдискретизация насыщенности : 4:2:0
Битовая глубина : 8 бит
Тип развёртки : Прогрессивная
Бит/(Пиксели*Кадры) : 0.110
Размер потока : 423 Мбайт (87%)
Язык : English
Дата кодирования : UTC 2011-05-26 11:44:56
Дата пометки : UTC 2011-05-26 11:44:56
Аудио
Идентификатор : 2
Формат : AAC
Формат/Информация : Advanced Audio Codec
Профиль формата : LC
Идентификатор кодека : 40
Продолжительность : 51 м.
Вид битрейта : Переменный
Битрейт : 160 Кбит/сек
Каналы : 2 канала
Расположение каналов : Front: L R
Частота : 48,0 КГц
Метод сжатия : С потерями
Размер потока : 59,5 Мбайт (12%)
Язык : English
Дата кодирования : UTC 2011-05-26 11:44:56
Дата пометки : UTC 2011-05-26 11:44:56
[teatrix.ru].t21359.torrent 
Торрент: Зарегистрирован [ 2016-03-20 12:06 ] · DA5C1CB73F2CB37F12B5FC388457F594BEE72F10

Скачать .torrent

Скачать

16 KB

Статус: проверено
Скачан: 0 раз
Размер: 5.57 GB
terms.php



Быстрый ответ

Имя:

      
Для отправки сообщений необходимо включить JavaScript
Показать сообщения:    

Текущее время: 05-Дек 13:33

Часовой пояс: UTC + 3


Вы можете начинать темы
Вы можете отвечать на сообщения
Вы не можете редактировать свои сообщения
Вы не можете удалять свои сообщения
Вы не можете голосовать в опросах
Вы не можете прикреплять файлы к сообщениям
Вы можете скачивать файлы