(Classical, Chamber) Григорий Фейгин / Grigory Feyghin plays Taneyev, Rubinstein, Madtner, Auer (Григорий Фейгин, скрипка, Виктор Полторацкий, Игорь Чернявский, фортепиано) - 2000, FLAC (image+.cue), lossless


 

[Цитировать]

Grigory Feyghin plays Taneyev, Rubinstein, Madtner, Auer
Жанр: Classical, Chamber
Страна-производитель диска: Czech Republic
Год издания диска: 2000
Издатель (лейбл): RCD
Номер по каталогу: 16 253
Дата записи: 1975-1977
Аудиокодек: FLAC
Тип рипа: image+.cue
Битрейт аудио: lossless
Продолжительность: 67.55
Источник: собственный рип
Наличие сканов в содержимом раздачи: д
Исполнители: Григорий Фейгин, скрипка
Виктор Полторацкий, Игорь Чернявский (Метнер), фортепиано

Треклист:

Taneyev: Sonata for Violin and Piano in A minor
01. I. Allegro
02. II. Adagio cantabile
03. III. Minuetto. Allegretto
04. IV. Allegro ma non troppo
Rubinstein: Sonata for Violin and Piano No. 2 in A minor
05. I. Allegro non troppo
06. II. Scherzo. Allegro assai
07. III. Adagio non troppo
08. IV. Allegro
09. Medtner: Nocturne in D minor, Op. 16 No. 1
10. Auer: Concert Tarantella
Total 67.55

Лог создания рипа:

Exact Audio Copy V1.0 beta 3 from 29. August 2011
Отчёт EAC об извлечении, выполненном 2. июня 2015, 23:22
Grigory Feyghin / Grigory Feyghin plays Taneyev, Rubistein, Medtner, Auer
Дисковод: Optiarc DVD RW AD-7260S Adapter: 0 ID: 1
Режим чтения : Достоверность
Использование точного потока : Да
Отключение кэша аудио : Да
Использование указателей C2 : Нет
Коррекция смещения при чтении : 48
Способность читать области Lead-in и Lead-out : Нет
Заполнение пропущенных сэмплов тишиной : Да
Удаление блоков с тишиной в начале и конце : Нет
При вычислениях CRC использовались нулевые сэмплы : Да
Интерфейс : Встроенный Win32-интерфейс для Win NT/2000
Выходной формат : Пользовательский кодировщик
Выбранный битрейт : 896 kBit/s
Качество : Высокий
Добавление ID3-тега : Нет
Утилита сжатия : C:\Program Files\FLAC Frontend\tools\flac.exe
Дополнительные параметры : -V -8 -T "Date=%year%" -T "Genre=%genre%" %source%
TOC извлечённого CD
Трек | Старт | Длительность | Начальный сектор | Конечный сектор
---------------------------------------------------------------------
1 | 0:00.00 | 6:04.52 | 0 | 27351
2 | 6:04.52 | 7:45.71 | 27352 | 62297
3 | 13:50.48 | 4:27.41 | 62298 | 82363
4 | 18:18.14 | 5:41.26 | 82364 | 107964
5 | 23:59.40 | 10:04.01 | 107965 | 153265
6 | 34:03.41 | 5:08.24 | 153266 | 176389
7 | 39:11.65 | 9:59.03 | 176390 | 221317
8 | 49:10.68 | 8:12.09 | 221318 | 258226
9 | 57:23.02 | 5:11.60 | 258227 | 281611
10 | 62:34.62 | 5:19.66 | 281612 | 305602
Характеристики диапазона извлечения и сообщения об ошибках
Выбранный диапазон
Имя файла D:\EAC\Мои раздачи\Grigory Feyghin plays Taneyev, Rubistein, Medtner, Auer\Grigory Feyghin - Grigory Feyghin plays Taneyev, Rubistein, Medtner, Auer.wav
Пиковый уровень 99.9 %
Скорость извлечения 4.5 X
Качество диапазона 100.0 %
CRC теста CBA72CD1
CRC копии CBA72CD1
Копирование... OK
Ошибок не произошло
AccurateRip: сводка
Трек 1 отсутствует в базе данных
Трек 2 отсутствует в базе данных
Трек 3 отсутствует в базе данных
Трек 4 отсутствует в базе данных
Трек 5 отсутствует в базе данных
Трек 6 отсутствует в базе данных
Трек 7 отсутствует в базе данных
Трек 8 отсутствует в базе данных
Трек 9 отсутствует в базе данных
Трек 10 отсутствует в базе данных
Ни одного трека нет в базе AccurateRip
Конец отчёта
==== Контрольная сумма отчёта 2CF5B5C80F584BACC24CF272A06B98A8891CB23FAB203F936BD8097411B61418 ====



Показать сообщения:    

Текущее время: 08-Дек 17:24

Часовой пояс: UTC + 3


Вы не можете начинать темы
Вы не можете отвечать на сообщения
Вы не можете редактировать свои сообщения
Вы не можете удалять свои сообщения
Вы не можете голосовать в опросах
Вы не можете прикреплять файлы к сообщениям
Вы не можете скачивать файлы