(Baroque Opera) Handel - Ottone, Re Di Germania (Minter, Saffer, Dean, Gondek, Popken - Freiburger Barockorchester, McGegan) - 2006, APE (image+.cue) lossless


 

[Цитировать]

George Frideric Handel - Ottone, Re Di Germania HWV 15
Clearly superior in nearly every respect to King's recording on Hyperion.
Superb, studio recording, with outstanding balance and recorded sound.
Nicely sung and played, with generally interesting ornamentation.
Жанр: Baroque Opera
Страна-производитель диска: Germany
Год издания диска: 2006
Издатель (лейбл): Harmonia Mundi
Номер по каталогу: HMU 907073/75
Дата записи: 1992
Аудиокодек: APE
Тип рипа: image+.cue
Битрейт аудио: lossless
Продолжительность: 70'44+64'07+54'56
Источник: скачано с
Наличие сканов в содержимом раздачи: да
Треклист:

CD1

1. Overture: (Lentement-Allegro)
2. Overture: Gavotte
3. Act One: Cavatina: Pur che regni (Gismonda)
4. Act One: Recit: Chi piu lieto e di me? (Adelberto, Gismonda)
5. Act One: Aria: La speranza e giunta in porto (Gismonda)
6. Act One: Recit: Vien di Romano inclita figlia (Adelberto, Teofane)
7. Act One: Aria: Bel labbro formato (Adelberto)
8. Act One: Recit: E tale Otton? (Teofane)
9. Act One: Aria: Falsa immagine (Teofane)
10. Act One: Concerto
11. Act One: Recit: Te, che assalir le nostre navi osasti (Ottone, Emireno)
12. Act One: Aria: Del minacciar del vento (Emireno)
13. Act One: Recit: Tutto a piu liete cure (Ottone, Matilda)
14. Act One: Aria: Ritorna, o dolce amore (Ottone)
15. Act One: Recit: Anch'io sperai (Matilda)
16. Act One: Aria: Diresti poi cosi? (Matilda)
17. Act One: Recit: Tu la madre d'Otton? (Teofane, Gismonda)
18. Act One: Aria: Pensa ad amare (Gismonda)
19. Act One: Recit: Adelaide, di cui con tanta lode; Indietro, indietro (Teofane, Adelberto, Gismonda)
20. Act One: Recit: Giunge Otton? (Teofane)
21. Act One: Aria: Affanni del pensier (Teofane)
22. Act One: Sinfonia
23. Act One: Recit: Cedi il ferro, o la vita (Ottone, Adelberto)
24. Act One: Aria: Tu puoi straziarmi (Adelberto)
25. Act One: Recit: E di piu mio rival? (Ottone)
26. Act One: Aria: Dell'onda ai fieri moti (Ottone)

CD2

1. Act Two: Sinfonia
2. Act Two: Recit: Per breve spazio a me colui (Matilda, Adelberto, Gismonda)
3. Act Two: Aria: Lascia, che nel suo viso (Adelberto)
4. Act Two: Recit: (Ah! che piu non resisto.) (Matilda, Gismonda)
5. Act Two: Ah! tu non sai (Matilda)
6. Act Two: Recit: Ah, Matilda, Matilda (Gismonda)
7. Act Two: Aria: Vieni, o figlio (Gismonda)
8. Act Two: Aria: Spera si (Teofane)
9. Act Two: Recit: (Quegli, e certo il mio sposo.) (Teofane, Ottone, Matilda)
10. Act Two: Aria: All'orror d'un duolo eterno (Matilda)
11. Act Two: Recit: O illustre Teofane (Ottone, Teofane)
12. Act Two: Aria: Alla fama (Teofane)
13. Act Two: Recit: Con gelosi sospetti (Ottone)
14. Act Two: Aria: Dopo l'orrore (Ottone)
15. Act Two: Accompagnato: O grati orrori (Teofane)
16. Act Two: Aria: S'io dir potessi (Teofane)
17. Act Two: Recit: Del gran sasso (Emireno, Adelberto)
18. Act Two: Aria: Le profonde vie dell'onde (Emireno)
19. Act Two: Recit: (Odo gente) (Adelberto, Matilda, Ottone, Teofane)
20. Act Two: Aria: Deh! non dir (Ottone)
21. Act Two: Recit: Gia d'ogni interno (Emireno, Adelberto, Teofane)
22. Act Two: Recit: Odo il suono (Gismonda, Matilda)
23. Act Two: Duetto: Notte cara (Gismonda, Matilda)

CD3

1. Act Three: Aria: Dove sei (Ottone)
2. Act Three: Recit: Gia t'invola (Gismonda, Ottone)
3. Act Three: Aria: Trema, tiranno (Gismonda)
4. Act Three: Accompagnato: Io son tradito (Ottone)
5. Act Three: Aria: Tanti affanni (Ottone)
6. Act Three: Sinfonia
7. Act Three: Recit: Empi, al vostro attentato (Teofane, Adelberto, Emireno)
8. Act Three: Aria: D'innalzar i flutti (Adelberto)
9. Act Three: Recit: Perche in vita tornai? (Teofane, Emireno, Adelberto)
10. Act Three: Recit: Si, mi traete alme (Teofane)
11. Act Three: Aria: Benche mi sia crudele (Teofane)
12. Act Three: Recit: Deh! ti trattiene (Emireno, Teofane)
13. Act Three: Aria: No, non temere, o bella (Emireno)
14. Act Three: Recit: Pur cangiasti alla fin (Teofane)
15. Act Three: Aria: Gode l'alma consolata (Teofane)
16. Act Three: Recit: Uno de'servi miei (Matilda, Ottone, Gismonda)
17. Act Three: Aria: Nel suo sangue (Matilda)
18. Act Three: Recit: Matilda, arresta il piede (Emireno, Adelberto, Gismonda, Matilda, Ottone)
19. Act Three: Recit: Frena, crudel (Teofane, Ottone)
20. Act Three: Duetto: A'teneri affetti (Teofane, Ottone)
21. Act Three: Coro: Faccia ritorno l'antica pace (Tutti)
Исполнители:
George Frideric Handel - Ottone, Re Di Germania HWV 15
Opera in 3 Acts
Libretto: by Nicola Francesco Haym adapted from the libretto by Stefano Benedetto Pallavicino for Antonio Lotti's opera Teofane
Ottone: Drew Minter, countertenor
Teofane: Lisa Saffer, soprano
Emireno: Michael Dean, bass
Gismonda: Juliana Gondek, soprano
Adelberto: Ralf Popken, countertenor
Matilda: Patricia Spence, mezzo-soprano
Freiburger Barockorchester
Nicholas McGegan

Содержание индексной карты (.CUE)

CD1

REM ACCURATERIPID 00445564-04fb3595-8010931a
REM COMMENT "CUETools generated dummy CUE sheet"
FILE "Unknown Artist - Unknown Title.ape" WAVE
TRACK 01 AUDIO
TITLE "Act I - Lentement-Allegro"
INDEX 01 00:00:00
TRACK 02 AUDIO
TITLE "Act I - Gavotte"
INDEX 01 03:25:37
TRACK 03 AUDIO
TITLE "Act I - Pur che regni"
INDEX 01 05:08:52
TRACK 04 AUDIO
TITLE "Act I - Chi piu lieto e di me"
INDEX 01 08:34:17
TRACK 05 AUDIO
TITLE "Act I - La speranza e giunta in porto"
INDEX 01 10:38:12
TRACK 06 AUDIO
TITLE "Act I - Vien di Romano inclita figlia"
INDEX 01 13:57:12
TRACK 07 AUDIO
TITLE "Act I - Bel labbro formato"
INDEX 01 15:25:22
TRACK 08 AUDIO
TITLE "Act I - E tale Otton"
INDEX 01 18:49:62
TRACK 09 AUDIO
TITLE "Act I - Falsa immagine"
INDEX 01 19:58:27
TRACK 10 AUDIO
TITLE "Act I - Concerto"
INDEX 01 26:01:37
TRACK 11 AUDIO
TITLE "Act I - Te, che assalir le nostre navi osasti"
INDEX 01 28:36:35
TRACK 12 AUDIO
TITLE "Act I - Del minacciar del vento"
INDEX 01 30:19:12
TRACK 13 AUDIO
TITLE "Act I - Tutto a piu liete cure"
INDEX 01 34:46:62
TRACK 14 AUDIO
TITLE "Act I - Ritorna, o dolce amore"
INDEX 01 37:22:12
TRACK 15 AUDIO
TITLE "Act I - Anch'io sperai"
INDEX 01 42:05:32
TRACK 16 AUDIO
TITLE "Act I - Diresti poi cosi"
INDEX 01 42:36:45
TRACK 17 AUDIO
TITLE "Act I - Tu la madre d'Otton"
INDEX 01 47:47:22
TRACK 18 AUDIO
TITLE "Act I - Pensa ad amare"
INDEX 01 49:47:42
TRACK 19 AUDIO
TITLE "Act I - Adelaide, di cui con tanta lade, Indietro"
INDEX 01 53:23:57
TRACK 20 AUDIO
TITLE "Act I - Giunge Otton"
INDEX 01 55:15:35
TRACK 21 AUDIO
TITLE "Act I - Affanni del pensier"
INDEX 01 55:55:20
TRACK 22 AUDIO
TITLE "Act I - Sinfonia"
INDEX 01 63:13:00
TRACK 23 AUDIO
TITLE "Act I - Cedi il ferro, o la vita"
INDEX 01 63:23:65
TRACK 24 AUDIO
TITLE "Act I - Tu puoi straziarmi"
INDEX 01 64:08:12
TRACK 25 AUDIO
TITLE "Act I - E di piu mio rival"
INDEX 01 66:29:17
TRACK 26 AUDIO
TITLE "Act I - Dell'onda ai fieri moti"
INDEX 01 67:17:70

CD2

REM ACCURATERIPID 0032eb47-03619d48-220f0717
REM COMMENT "CUETools generated dummy CUE sheet"
FILE "Unknown Artist - Unknown Title.ape" WAVE
TRACK 01 AUDIO
TITLE "Act II - Sinfonia"
INDEX 01 00:00:00
TRACK 02 AUDIO
TITLE "Act II - Per breve spazio a me colui"
INDEX 01 00:25:50
TRACK 03 AUDIO
TITLE "Act II - Lascia, che nel suo viso"
INDEX 01 01:59:62
TRACK 04 AUDIO
TITLE "Act II - Ah, che piu non resisto"
INDEX 01 05:03:27
TRACK 05 AUDIO
TITLE "Act II - Ah, tu non sai"
INDEX 01 06:45:65
TRACK 06 AUDIO
TITLE "Act II - Ah, Matilda, Matilda"
INDEX 01 10:29:45
TRACK 07 AUDIO
TITLE "Act II - Vieni, o figlio"
INDEX 01 10:58:65
TRACK 08 AUDIO
TITLE "Act II - Spera si"
INDEX 01 17:51:40
TRACK 09 AUDIO
TITLE "Act II - Quegli, e certo il mio sposo"
INDEX 01 23:05:15
TRACK 10 AUDIO
TITLE "Act II - All'orror d'un duolo eterno"
INDEX 01 25:36:65
TRACK 11 AUDIO
TITLE "Act II - O illustre Teofane"
INDEX 01 28:43:07
TRACK 12 AUDIO
TITLE "Act II - Alla fama"
INDEX 01 30:01:27
TRACK 13 AUDIO
TITLE "Act II - Con gelosi sopetti"
INDEX 01 33:45:10
TRACK 14 AUDIO
TITLE "Act II - Dopo l'orrore"
INDEX 01 34:11:15
TRACK 15 AUDIO
TITLE "Act II - O grati orrori"
INDEX 01 38:55:50
TRACK 16 AUDIO
TITLE "Act II - S'io dir potessi"
INDEX 01 41:26:47
TRACK 17 AUDIO
TITLE "Act II - Del gran sasso"
INDEX 01 46:41:65
TRACK 18 AUDIO
TITLE "Act II - Le profonde vie dell'onde"
INDEX 01 47:52:37
TRACK 19 AUDIO
TITLE "Act II - Odo gente"
INDEX 01 50:21:32
TRACK 20 AUDIO
TITLE "Act II - Deh, non dir"
INDEX 01 52:23:60
TRACK 21 AUDIO
TITLE "Act II - Gia d'ogni interno"
INDEX 01 56:00:52
TRACK 22 AUDIO
TITLE "Act II - Odo il suono"
INDEX 01 56:55:00
TRACK 23 AUDIO
TITLE "Act II - Notte cara"
INDEX 01 57:51:15

CD3

REM ACCURATERIPID 002e33f7-02d4b1fb-2c0ce116
REM COMMENT "CUETools generated dummy CUE sheet"
FILE "Unknown Artist - Unknown Title.ape" WAVE
TRACK 01 AUDIO
TITLE "Act III - Dove sei"
INDEX 01 00:00:00
TRACK 02 AUDIO
TITLE "Act III - Gia t'invola"
INDEX 01 04:40:18
TRACK 03 AUDIO
TITLE "Act III - Trema, tiranno"
INDEX 01 06:25:73
TRACK 04 AUDIO
TITLE "Act III - Io son tradito"
INDEX 01 09:36:33
TRACK 05 AUDIO
TITLE "Act III - Tanti affanni"
INDEX 01 11:28:00
TRACK 06 AUDIO
TITLE "Act III - Sinfonia"
INDEX 01 18:00:40
TRACK 07 AUDIO
TITLE "Act III - Empi, al vostro attentato"
INDEX 01 18:24:35
TRACK 08 AUDIO
TITLE "Act III - D'innalzar i flutti"
INDEX 01 19:09:45
TRACK 09 AUDIO
TITLE "Act III - Perche in vita tornai"
INDEX 01 22:37:08
TRACK 10 AUDIO
TITLE "Act III - Si, mi traete alme"
INDEX 01 24:40:13
TRACK 11 AUDIO
TITLE "Act III - Benche mi sia crudele"
INDEX 01 25:15:68
TRACK 12 AUDIO
TITLE "Act III - Deh, ti trattiene"
INDEX 01 29:25:53
TRACK 13 AUDIO
TITLE "Act III - No, non temere, o bella"
INDEX 01 31:11:05
TRACK 14 AUDIO
TITLE "Act III - Pur cangiasti alla fin"
INDEX 01 34:49:38
TRACK 15 AUDIO
TITLE "Act III - Gode l'alma consolata"
INDEX 01 35:15:30
TRACK 16 AUDIO
TITLE "Act III - Uno de' servi miei"
INDEX 01 40:32:38
TRACK 17 AUDIO
TITLE "Act III - Nel suo sangue"
INDEX 01 42:01:60
TRACK 18 AUDIO
TITLE "Act III - Matilda, arresta il piede"
INDEX 01 44:46:65
TRACK 19 AUDIO
TITLE "Act III - Frena, crudel"
INDEX 01 46:48:00
TRACK 20 AUDIO
TITLE "Act III - A' teneri affetti"
INDEX 01 47:28:73
TRACK 21 AUDIO
TITLE "Act III - Ma qual caso"
INDEX 01 51:56:43
TRACK 22 AUDIO
TITLE "Act III - Faccia ritorno l'antica pace"
INDEX 01 53:20:58

Лог проверки качества

CD1

[CUETools log; Date: 28-5-2015 13:19:30; Version: 2.1.4]
[AccurateRip ID: 00445564-04fb3595-8010931a] found.
Track [ CRC | V2 ] Status
01 [7ddcb31a|ca7200bf] (0+0/6) No match
02 [1abb5ea2|55aa8a7b] (0+0/6) No match
03 [b5bfde8c|fbb898d4] (0+0/6) No match
04 [8811453f|fe8cefc8] (0+0/6) No match
05 [073d9d41|68e09158] (0+0/6) No match
06 [bc23398c|3e22879d] (0+0/6) No match
07 [4b370edd|7eff6938] (0+0/6) No match
08 [23a7bfbe|b27ab8a6] (0+0/6) No match
09 [75b5b32d|daaf0ec1] (0+0/6) No match
10 [77920ef6|e8f61bb5] (0+0/6) No match
11 [fd8e1861|ee91db8a] (0+0/6) No match
12 [7a5d3f39|a6beea82] (0+0/6) No match
13 [11957a38|b18bb431] (0+0/6) No match
14 [94490921|8ed5dc8a] (0+0/6) No match
15 [c25f78b4|e2c26241] (0+0/6) No match
16 [53aaae95|aad9aeeb] (0+0/6) No match
17 [b05dcd3e|b8a70d36] (0+0/6) No match
18 [cdf9482f|fe6f0045] (0+0/6) No match
19 [a909e3e8|0e2ee8c8] (0+0/6) No match
20 [b4a535f8|0ab9849b] (0+0/6) No match
21 [c87aa47e|0011a29e] (0+0/6) No match
22 [d8a89867|802d03ff] (0+0/6) No match
23 [3bf93a8b|c7f8d8e5] (0+0/6) No match
24 [aba76630|88eec67a] (0+0/6) No match
25 [92b581cd|a388d97f] (0+0/6) No match
26 [5979baed|ce66eb5f] (0+0/6) No match
Offsetted by 704:
01 [5a31aeb9] (3/6) Accurately ripped
02 [ac9cdfa8] (3/6) Accurately ripped
03 [c9df8202] (3/6) Accurately ripped
04 [39bdadbc] (0/6) No match (V2 was not tested)
05 [b4de8898] (0/6) No match (V2 was not tested)
06 [c987016c] (3/6) Accurately ripped
07 [2cf33cff] (3/6) Accurately ripped
08 [c765c2d9] (3/6) Accurately ripped
09 [893674d3] (3/6) Accurately ripped
10 [757f5eb4] (3/6) Accurately ripped
11 [119f7408] (3/6) Accurately ripped
12 [6dbe4067] (3/6) Accurately ripped
13 [25870098] (3/6) Accurately ripped
14 [5b15ff03] (0/6) No match (V2 was not tested)
15 [160b13fa] (3/6) Accurately ripped
16 [7eece106] (3/6) Accurately ripped
17 [18055bc1] (3/6) Accurately ripped
18 [8328b706] (3/6) Accurately ripped
19 [e6982b64] (3/6) Accurately ripped
20 [4d24110d] (3/6) Accurately ripped
21 [90140a78] (3/6) Accurately ripped
22 [8f4ba68f] (3/6) Accurately ripped
23 [41ec1ca2] (3/6) Accurately ripped
24 [d6d4db9f] (3/6) Accurately ripped
25 [da06c780] (3/6) Accurately ripped
26 [a5994a25] (3/6) Accurately ripped
Track Peak [ CRC32 ] [W/O NULL]
-- 94,6 [7804A237] [28D00CF5]
01 41,5 [CA1711F3] [E492FB22]
02 32,4 [9630B220] [99CF8363]
03 82,3 [7576CE3A] [CA23CE08]
04 76,9 [762101B4] [D864310E]
05 89,1 [135C2DEA] [6E47C9B8]
06 34,6 [E40CCCF6] [0CA03EAA]
07 71,0 [6EB3C698] [5FBADDB4]
08 44,9 [E3325710] [EC33899F]
09 85,0 [F0BF99BD] [04CDC0DB]
10 35,0 [EE01EAB8] [C7678BB3]
11 89,6 [28273526] [9EFC33C7]
12 87,3 [476D15EE] [2041817E]
13 77,0 [3D658C64] [6E83440F]
14 77,8 [36738524] [A65306EC]
15 68,6 [A087F8C7] [70823D53]
16 56,6 [D9199A38] [717870A7]
17 76,1 [55A5CCEF] [F8F9462E]
18 94,6 [F478B06F] [B4F2A166]
19 77,3 [E0636225] [9EAA5AB3]
20 37,9 [7876FFD5] [11BDA312]
21 72,3 [713B1D88] [4125342E]
22 27,6 [8874000B] [E77F08C2]
23 35,5 [CFE4448E] [27F8401D]
24 88,8 [53385725] [BAAD7240]
25 65,8 [E8F7B10A] [32EB9940]
26 89,1 [2A58CED8] [01ADB78A]

CD2

[CUETools log; Date: 28-5-2015 13:20:09; Version: 2.1.4]
[AccurateRip ID: 0032eb47-03619d48-220f0717] found.
Track [ CRC | V2 ] Status
01 [8132eb7f|57f0f4af] (0+0/6) No match
02 [89b552ff|7942c92e] (0+0/6) No match
03 [3e97ebe1|06cb0cd6] (0+0/6) No match
04 [095356c6|b03f850f] (0+0/6) No match
05 [b65b0ad5|1049d54c] (0+0/6) No match
06 [bf82838b|2103fe93] (0+0/6) No match
07 [faf870e0|8579750b] (0+0/6) No match
08 [ccf7c0e3|77375863] (0+0/6) No match
09 [bb5143c0|179a1c31] (0+0/6) No match
10 [47e265cc|afdeff51] (0+0/6) No match
11 [236f793b|8ef348de] (0+0/6) No match
12 [abd1846f|f1741d9d] (0+0/6) No match
13 [4ddd9a26|782defa4] (0+0/6) No match
14 [176d4b32|42fa2b8f] (0+0/6) No match
15 [d86a85a8|7f3e7550] (0+0/6) No match
16 [e2ea43a9|2fd0c952] (0+0/6) No match
17 [b8e95cb8|45e8b22b] (0+0/6) No match
18 [bc284881|8f769622] (0+0/6) No match
19 [d180a9ad|08e47483] (0+0/6) No match
20 [c337e6da|5bac0081] (0+0/6) No match
21 [59a68458|0c8374ae] (0+0/6) No match
22 [0cd38f05|3e32409a] (0+0/6) No match
23 [96de220a|a2b90370] (0+0/6) No match
Offsetted by 704:
01 [2cd2b1f8] (3/6) Accurately ripped
02 [12d96cd8] (3/6) Accurately ripped
03 [b8c1bc47] (3/6) Accurately ripped
04 [38e29812] (3/6) Accurately ripped
05 [ac5f2c6b] (0/6) No match (V2 was not tested)
06 [4194655b] (3/6) Accurately ripped
07 [2cf27d3c] (3/6) Accurately ripped
08 [8fa44f27] (3/6) Accurately ripped
09 [5b2bd16a] (3/6) Accurately ripped
10 [ab2d5517] (3/6) Accurately ripped
11 [514d3413] (3/6) Accurately ripped
12 [ec69e98a] (3/6) Accurately ripped
13 [568e8807] (3/6) Accurately ripped
14 [ac5d9f75] (3/6) Accurately ripped
15 [add0c4c7] (3/6) Accurately ripped
16 [3c357b54] (3/6) Accurately ripped
17 [811976ed] (3/6) Accurately ripped
18 [1dc670c0] (0/6) No match (V2 was not tested)
19 [83d9cd69] (3/6) Accurately ripped
20 [7b1a5b6e] (3/6) Accurately ripped
21 [9b612994] (3/6) Accurately ripped
22 [a061a80d] (3/6) Accurately ripped
23 [c5ca731e] (3/6) Accurately ripped
Track Peak [ CRC32 ] [W/O NULL]
-- 97,7 [99AD4297] [C213EDB2]
01 29,2 [76329C44] [959408F8]
02 46,0 [7C69F727] [03A077F9]
03 94,4 [4A637142] [F5AB103C]
04 86,2 [F679468C] [2E4C513A]
05 47,5 [409D7528] [299D762C]
06 30,0 [A62AD214] [7B71FDEE]
07 83,7 [F7A5CB8F] [8976D9A1]
08 83,6 [19DAEFA0] [47E61148]
09 75,9 [D562976F] [41BABDB2]
10 69,6 [169E287B] [9128E185]
11 47,3 [7D2E0005] [8538EFF9]
12 81,3 [744DDE5C] [E7C12BF9]
13 33,2 [8B2CBE24] [252BE90A]
14 95,4 [4E18D8D7] [0E7F749A]
15 70,3 [F71C271A] [4289FCDE]
16 51,1 [66D06464] [ABF1D453]
17 36,3 [EAD9B622] [9C8A1468]
18 57,3 [FC14EA8E] [4D791A4E]
19 54,0 [B3EA2207] [E4967A63]
20 95,6 [E2A76CFB] [DFCF9CCC]
21 29,2 [508337DF] [19F9EEBD]
22 42,1 [CB49D48B] [F0EEB421]
23 97,7 [4F4917C2] [F067D2B4]

CD3

[CUETools log; Date: 28-5-2015 13:20:39; Version: 2.1.4]
[AccurateRip ID: 002e33f7-02d4b1fb-2c0ce116] found.
Track [ CRC | V2 ] Status
01 [31c41aaa|9ff51024] (0+0/6) No match
02 [5484ccee|62d87f3f] (0+0/6) No match
03 [4bca371e|1f81e90f] (0+0/6) No match
04 [39827d08|e0719cbc] (0+0/6) No match
05 [5b4b71cc|4edaef9f] (0+0/6) No match
06 [d47ee7df|842893ba] (0+0/6) No match
07 [78948238|a6891ce2] (0+0/6) No match
08 [a7e17a8a|c5d4767c] (0+0/6) No match
09 [f5c5b6d9|91a7c41c] (0+0/6) No match
10 [cfa65de0|1c7a3069] (0+0/6) No match
11 [50e36cfb|23e6dfde] (0+0/6) No match
12 [36587e47|88e942f6] (0+0/6) No match
13 [69ad3fc2|4e6d2401] (0+0/6) No match
14 [5570ab28|d144867c] (0+0/6) No match
15 [49f94ba2|20501b48] (0+0/6) No match
16 [e75f059d|8e56b7a6] (0+0/6) No match
17 [e2e8126b|5a58620e] (0+0/6) No match
18 [f8d1e2e1|1f452873] (0+0/6) No match
19 [5b6ca621|5da0f90e] (0+0/6) No match
20 [ffebda82|bf3d654e] (0+0/6) No match
21 [86ec2b14|d0d08ffd] (0+0/6) No match
22 [7c67b102|84d21cf7] (0+0/6) No match
Offsetted by 704:
01 [f734fcc3] (3/6) Accurately ripped
02 [2b2fca70] (3/6) Accurately ripped
03 [6e2d4226] (3/6) Accurately ripped
04 [b306366d] (3/6) Accurately ripped
05 [9d29ba83] (3/6) Accurately ripped
06 [da536e87] (3/6) Accurately ripped
07 [ac13a189] (3/6) Accurately ripped
08 [bfb0c663] (3/6) Accurately ripped
09 [fc1d2d1d] (3/6) Accurately ripped
10 [4e138900] (3/6) Accurately ripped
11 [38058832] (3/6) Accurately ripped
12 [c4c51426] (3/6) Accurately ripped
13 [534ce830] (3/6) Accurately ripped
14 [a6b800b3] (3/6) Accurately ripped
15 [e31de355] (0/6) No match (V2 was not tested)
16 [fe538112] (3/6) Accurately ripped
17 [d7aff1b8] (3/6) Accurately ripped
18 [3008d862] (3/6) Accurately ripped
19 [cec13ae4] (3/6) Accurately ripped
20 [bb43f9dd] (3/6) Accurately ripped
21 [5b980d78] (3/6) Accurately ripped
22 [b39ef68a] (3/6) Accurately ripped
Track Peak [ CRC32 ] [W/O NULL]
-- 95,3 [1F313ADC] [C1788F14]
01 93,5 [53E671CD] [833D21C5]
02 90,5 [2009CDF5] [D5412EC6]
03 90,4 [4F6B42E5] [22651533]
04 93,8 [E62CABFE] [E76E33C7]
05 70,7 [5D9025CF] [B6DC9B16]
06 34,9 [A27AE7FD] [9A8279C6]
07 32,0 [5373CB39] [001F5731]
08 72,9 [C5E5F7A1] [6EDEDB54]
09 57,6 [EA5A0136] [A77D03CE]
10 24,7 [C4FB702D] [78F99B48]
11 73,0 [2366B8EE] [C7C2CDB6]
12 46,2 [EB7B20E6] [2682E513]
13 67,1 [2D5D49A5] [2E477470]
14 38,4 [824217C0] [4D51CEDA]
15 57,6 [8B48BD9F] [87A39F02]
16 86,3 [9749D50C] [D4559F04]
17 54,9 [1EAFF4A0] [96D63068]
18 59,0 [7BCEC078] [2D3258C9]
19 30,8 [ADA7EF46] [FF0B986D]
20 90,6 [1B3DA994] [24C6EF90]
21 53,1 [2D30F2D9] [6F561CF2]
22 95,3 [600DF80A] [4CF58154]



Показать сообщения:    

Текущее время: 07-Дек 17:30

Часовой пояс: UTC + 3


Вы не можете начинать темы
Вы не можете отвечать на сообщения
Вы не можете редактировать свои сообщения
Вы не можете удалять свои сообщения
Вы не можете голосовать в опросах
Вы не можете прикреплять файлы к сообщениям
Вы не можете скачивать файлы