(Classical) London Calling! - Handel and His Contemporaries: Corelli, Veracini, Geminiani - Barokksolistene, Bjarte Eike, Tuva Semmingsen - 2012, FLAC (image+.cue) lossless


 

[Цитировать]

London Calling! - Handel and His Contemporaries: Corelli, Veracini, Geminiani - Barokksolistene, Bjarte Eike, Tuva Semmingsen
Жанр: Classical
Страна-производитель диска: Sweden
Год издания диска: 2012
Издатель (лейбл): BIS
Номер по каталогу: BIS-SACD-1997
Дата записи: 2010
Аудиокодек: FLAC
Тип рипа: image+.cue
Битрейт аудио: lossless
Продолжительность: 76:15
Источник: собственный рип
Наличие сканов в содержимом раздачи: да
Треклист:
George Frideric Handel (1685–1759)
from Amadigi di Gaula, HWV 11
[1] Sinfonia (Act 1)
[2] Aria (Amadigi): T’amai, quant’il mio cor
[3] Aria (Amadigi): Vado, corro al mio tesoro
Arcangelo Corelli (1653–1713)
[4]-[6] Concerto grosso in D major, Op. 6 No. 4
George Frideric Handel
from Hercules, HWV 60
[7] Sinfonia (Act 3)
[8] Recitativo accompagnato (Dejanira): Where shall I fly?
Francesco Maria Veracini (1690–1768)
[9]-[11] Sonata in A major for violin and continuo
(Sonate accademiche, Op. 2 No. 9)
George Frideric Handel
from Theodora, HWV 68
[12] Air (Irene): As with rosy steps
Francesco Geminiani (1687–1762)
[13] Concerto grosso in D minor, No.12 (‘La Follia’)
George Frideric Handel
from Amadigi di Gaula, HWV 11
[14] Aria (Amadigi): O rendetemi il mio bene
[15] Sinfonia (Act 3)
[16] Aria (Amadigi): Sento la gioia
Исполнители:
Barokksolistene
Bjarte Eike artistic director & violin
Tuva Semmingsen mezzo-soprano

Лог создания рипа

Exact Audio Copy V1.0 beta 3 from 29. August 2011
EAC extraction logfile from 16. January 2015, 1:28
Barokksolistene, Bjarte Eike / London Calling
Used drive : HL-DT-STDVDRAM GU70N Adapter: 0 ID: 0
Read mode : Secure
Utilize accurate stream : Yes
Defeat audio cache : Yes
Make use of C2 pointers : No
Read offset correction : 48
Overread into Lead-In and Lead-Out : No
Fill up missing offset samples with silence : Yes
Delete leading and trailing silent blocks : No
Null samples used in CRC calculations : Yes
Used interface : Native Win32 interface for Win NT & 2000
Used output format : User Defined Encoder
Selected bitrate : 128 kBit/s
Quality : High
Add ID3 tag : No
Command line compressor : C:\Program Files (x86)\Exact Audio Copy\Flac\flac.exe
Additional command line options : -V -8 -T "Date=%year%" -T "Genre=%genre%" %source%
TOC of the extracted CD
Track | Start | Length | Start sector | End sector
---------------------------------------------------------
1 | 0:00.00 | 4:06.32 | 0 | 18481
2 | 4:06.32 | 5:17.09 | 18482 | 42265
3 | 9:23.41 | 3:17.12 | 42266 | 57052
4 | 12:40.53 | 3:34.22 | 57053 | 73124
5 | 16:15.00 | 2:19.61 | 73125 | 83610
6 | 18:34.61 | 4:13.67 | 83611 | 102652
7 | 22:48.53 | 2:59.26 | 102653 | 116103
8 | 25:48.04 | 6:07.20 | 116104 | 143648
9 | 31:55.24 | 4:05.71 | 143649 | 162094
10 | 36:01.20 | 0:31.16 | 162095 | 164435
11 | 36:32.36 | 7:03.65 | 164436 | 196225
12 | 43:36.26 | 8:07.00 | 196226 | 232750
13 | 51:43.26 | 11:30.42 | 232751 | 284542
14 | 63:13.68 | 6:06.67 | 284543 | 312059
15 | 69:20.60 | 1:22.57 | 312060 | 318266
16 | 70:43.42 | 5:31.34 | 318267 | 343125
Range status and errors
Selected range
Filename C:\temp\BIS-SACD-1997 - London Calling! - Barokksolistene\London Calling.wav
Peak level 96.0 %
Extraction speed 2.3 X
Range quality 100.0 %
Test CRC C2765116
Copy CRC C2765116
Copy OK
No errors occurred
AccurateRip summary
Track 1 accurately ripped (confidence 1) [78292A4B] (AR v1)
Track 2 accurately ripped (confidence 1) [9B7681C6] (AR v1)
Track 3 accurately ripped (confidence 1) [73D91526] (AR v1)
Track 4 accurately ripped (confidence 1) [2D7C841B] (AR v1)
Track 5 accurately ripped (confidence 1) [FA96A474] (AR v1)
Track 6 accurately ripped (confidence 1) [C6D97F6F] (AR v1)
Track 7 accurately ripped (confidence 1) [34FE677A] (AR v1)
Track 8 accurately ripped (confidence 1) [A80331C7] (AR v1)
Track 9 accurately ripped (confidence 1) [78861D26] (AR v1)
Track 10 accurately ripped (confidence 1) [563FD947] (AR v1)
Track 11 accurately ripped (confidence 1) [F9BB3148] (AR v1)
Track 12 accurately ripped (confidence 1) [CA657A12] (AR v1)
Track 13 accurately ripped (confidence 1) [3CEB77CB] (AR v1)
Track 14 accurately ripped (confidence 1) [45A043B8] (AR v1)
Track 15 cannot be verified as accurate (confidence 1) [D2E7DC97], AccurateRip returned [88947EB5] (AR v2)
Track 16 cannot be verified as accurate (confidence 1) [6AD85668], AccurateRip returned [481C6D8D] (AR v2)
14 track(s) accurately ripped
2 track(s) could not be verified as accurate
Some tracks could not be verified as accurate
End of status report
==== Log checksum EBA7DD98EBC399AAE6B3D9E6AE15F1330D9CD2EB7DCF41E0EC845301F05D4EC5 ====



Показать сообщения:    

Текущее время: 03-Дек 16:40

Часовой пояс: UTC + 3


Вы не можете начинать темы
Вы не можете отвечать на сообщения
Вы не можете редактировать свои сообщения
Вы не можете удалять свои сообщения
Вы не можете голосовать в опросах
Вы не можете прикреплять файлы к сообщениям
Вы не можете скачивать файлы