(Classical) Mozart Castrato Arias - Valer Sabadus; recreation – Grosses Orchester Graz, Michael Hofstetter - 2014, FLAC (image+.cue) lossless


 

[Цитировать]

Mozart Castrato Arias - Valer Sabadus; recreation – Großes Orchester Graz, Michael Hofstetter
Жанр: Classical
Страна-производитель диска: Germany
Год издания диска: 2014
Издатель (лейбл): OehmsClassics
Номер по каталогу: OC1814
Дата записи: 2013
Аудиокодек: FLAC
Тип рипа: image+.cue
Битрейт аудио: lossless
Продолжительность: 49:54
Источник: собственный рип
Наличие сканов в содержимом раздачи: да
Треклист:
Wolfgang Amadeus Mozart (1756-1791)
La finta giardiniera, KV 196
[1] Se l’augellin sen fugge (Ramiro)
[2] Dolce d‘amor compagna (Ramiro)
Lucio Silla, KV 135
[3] Ouvertüre
[4] Pupille amate (Cecilio)
[5] Il tenero momento (Cecilio)
La clemenza di Tito, KV 621
[6] Deh, per questo istante solo (Sesto)
Idomeneo, Rè di Creta, KV 366
[7] Non ho colpa (Idamante)
Le nozze di Figaro, KV 492
[8] Voi che sapete (Cherubino)
Исполнители:
Valer Sabadus countertenor
recreation – Großes Orchester Graz
Michael Hofstetter
conductor

Лог создания рипа

Exact Audio Copy V1.0 beta 3 from 29. August 2011
EAC extraction logfile from 28. May 2015, 20:48
Valer Sabadus, recreation - Grosses Orchester Graz, Michael Hofstetter / Mozart Castrato Arias
Used drive : HL-DT-STDVDRAM GU70N Adapter: 0 ID: 0
Read mode : Secure
Utilize accurate stream : Yes
Defeat audio cache : Yes
Make use of C2 pointers : No
Read offset correction : 48
Overread into Lead-In and Lead-Out : No
Fill up missing offset samples with silence : Yes
Delete leading and trailing silent blocks : No
Null samples used in CRC calculations : Yes
Used interface : Native Win32 interface for Win NT & 2000
Used output format : User Defined Encoder
Selected bitrate : 128 kBit/s
Quality : High
Add ID3 tag : No
Command line compressor : C:\Program Files (x86)\Exact Audio Copy\Flac\flac.exe
Additional command line options : -V -8 -T "Date=%year%" -T "Genre=%genre%" %source%
TOC of the extracted CD
Track | Start | Length | Start sector | End sector
---------------------------------------------------------
1 | 0:00.00 | 4:18.23 | 0 | 19372
2 | 4:18.23 | 7:52.19 | 19373 | 54791
3 | 12:10.42 | 7:30.26 | 54792 | 88567
4 | 19:40.68 | 5:12.65 | 88568 | 112032
5 | 24:53.58 | 8:29.70 | 112033 | 150277
6 | 33:23.53 | 7:24.71 | 150278 | 183648
7 | 40:48.49 | 6:01.65 | 183649 | 210788
8 | 46:50.39 | 3:04.32 | 210789 | 224620
Range status and errors
Selected range
Filename C:\temp\Mozart Castrato Arias - Sabadus\Mozart Castrato Arias.wav
Peak level 97.7 %
Extraction speed 4.9 X
Range quality 100.0 %
Test CRC A3F70CC1
Copy CRC A3F70CC1
Copy OK
No errors occurred
AccurateRip summary
Track 1 not present in database
Track 2 not present in database
Track 3 not present in database
Track 4 not present in database
Track 5 not present in database
Track 6 not present in database
Track 7 not present in database
Track 8 not present in database
None of the tracks are present in the AccurateRip database
End of status report
==== Log checksum 32D97A3200BBE57C684BF05E1D495DE131BBDC5B43AAD91B33EE27DBB3F98A83 ====



Показать сообщения:    

Текущее время: 06-Дек 22:47

Часовой пояс: UTC + 3


Вы не можете начинать темы
Вы не можете отвечать на сообщения
Вы не можете редактировать свои сообщения
Вы не можете удалять свои сообщения
Вы не можете голосовать в опросах
Вы не можете прикреплять файлы к сообщениям
Вы не можете скачивать файлы