(Opera) Francesco Cilea - Gloria / Франческо Чилеа - Глория (Fernando Previtali; Margherita Roberti, Lorenzo Testi, Flaviano Labo, Ferrucio Mazzoli), 1969 - live from Torino / 1992, FLAC (tracks+.cue), lossless


 

[Цитировать]

Francesco Cilea - Gloria / Франческо Чилеа - Глория (Fernando Previtali; Margherita Roberti, Lorenzo Testi, Flaviano Labò, Ferrucio Mazzoli)
Жанр: Opera
Страна-производитель диска: Италия
Год издания диска: 1992
Издатель (лейбл): Memories
Дата записи: 1969
Аудиокодек: FLAC
Тип рипа: tracks+.cue
Битрейт аудио: lossless
Продолжительность: 79:04
Источник: релизер (Guillermo)
Исполнители:
Margherita Roberti - Gloria,
Flaviano Labò - Lionetto,
Lorenzo Testi - Bardo,
Ferrucio Mazzoli - Auilante.
Fernando Previtali, Conductor,
Coro e Orchestra Sinfonica di Torino della RAI.
Recorded live at Torino, July, 8, 1969.

Лог создания рипа

Exact Audio Copy V1.0 beta 3 from 29. August 2011
EAC extraction logfile from 31. May 2015, 8:06
Roberti - Labo - Mazzoli - Previtali (c) / Cilea: Gloria
Used drive : HL-DT-STDVDRAM GH24NSC0 Adapter: 3 ID: 0
Read mode : Secure
Utilize accurate stream : Yes
Defeat audio cache : Yes
Make use of C2 pointers : No
Read offset correction : 6
Overread into Lead-In and Lead-Out : No
Fill up missing offset samples with silence : Yes
Delete leading and trailing silent blocks : No
Null samples used in CRC calculations : Yes
Used interface : Native Win32 interface for Win NT & 2000
Used output format : User Defined Encoder
Selected bitrate : 768 kBit/s
Quality : High
Add ID3 tag : No
Command line compressor : C:\Program Files (x86)\Exact Audio Copy\FLAC\FLAC.EXE
Additional command line options : -8 -V -T "ARTIST=%artist%" -T "TITLE=%title%" -T "ALBUM=%albumtitle%" -T "DATE=%year%" -T "TRACKNUMBER=%tracknr%" -T "GENRE=%genre%" -T "PERFORMER=%albuminterpret%" -T "COMPOSER=%composer%" %haslyrics%--tag-from-file=LYRICS="%lyricsfile%"%haslyrics% -T "ALBUMARTIST=%albumartist%" -T "DISCNUMBER=%cdnumber%" -T "TOTALDISCS=%totalcds%" -T "TOTALTRACKS=%numtracks%" -T "COMMENT=%comment%" %source% -o %dest%
TOC of the extracted CD
Track | Start | Length | Start sector | End sector
---------------------------------------------------------
1 | 0:00.33 | 6:34.12 | 33 | 29594
2 | 6:34.45 | 4:38.13 | 29595 | 50457
3 | 11:12.58 | 2:00.00 | 50458 | 59457
4 | 13:12.58 | 4:22.12 | 59458 | 79119
5 | 17:34.70 | 2:40.63 | 79120 | 91182
6 | 20:15.58 | 3:11.12 | 91183 | 105519
7 | 23:26.70 | 1:30.63 | 105520 | 112332
8 | 24:57.58 | 5:02.00 | 112333 | 134982
9 | 29:59.58 | 2:50.12 | 134983 | 147744
10 | 32:49.70 | 3:31.38 | 147745 | 163607
11 | 36:21.33 | 8:08.62 | 163608 | 200269
12 | 44:30.20 | 3:36.63 | 200270 | 216532
13 | 48:07.08 | 8:34.00 | 216533 | 255082
14 | 56:41.08 | 9:32.25 | 255083 | 298007
15 | 66:13.33 | 4:15.25 | 298008 | 317157
16 | 70:28.58 | 8:35.50 | 317158 | 355832
Track 1
Filename f:\Users\Guillermo\Desktop\EAC convertidos\01 Or si rinnovi il bando dell'indulto.wav
Pre-gap length 0:00:02.44
Peak level 50.5 %
Extraction speed 1.9 X
Track quality 100.0 %
Test CRC 512E9026
Copy CRC 512E9026
Copy OK
Track 2
Filename f:\Users\Guillermo\Desktop\EAC convertidos\02 Fonte muta e profonda.wav
Peak level 45.7 %
Extraction speed 1.7 X
Track quality 99.9 %
Test CRC 2B3D2F24
Copy CRC 2B3D2F24
Copy OK
Track 3
Filename f:\Users\Guillermo\Desktop\EAC convertidos\03 Al Ciel sia lode.wav
Peak level 38.5 %
Extraction speed 1.7 X
Track quality 100.0 %
Test CRC 7A6BB4A9
Copy CRC 7A6BB4A9
Copy OK
Track 4
Filename f:\Users\Guillermo\Desktop\EAC convertidos\04 Storia ho di sangue.wav
Peak level 44.1 %
Extraction speed 2.2 X
Track quality 100.0 %
Test CRC C122ABA4
Copy CRC C122ABA4
Copy OK
Track 5
Filename f:\Users\Guillermo\Desktop\EAC convertidos\05 Vergine, d'astri e di viole adorna.wav
Peak level 42.9 %
Extraction speed 2.1 X
Track quality 100.0 %
Test CRC 2C493531
Copy CRC 2C493531
Copy OK
Track 6
Filename f:\Users\Guillermo\Desktop\EAC convertidos\06 Fuorusciti, e gia l'ora del rivarco.wav
Peak level 51.7 %
Extraction speed 2.2 X
Track quality 100.0 %
Test CRC 40385415
Copy CRC 40385415
Copy OK
Track 7
Filename f:\Users\Guillermo\Desktop\EAC convertidos\07 Conoscetemi alfin.wav
Peak level 52.3 %
Extraction speed 1.8 X
Track quality 100.0 %
Test CRC 6E4621CF
Copy CRC 6E4621CF
Copy OK
Track 8
Filename f:\Users\Guillermo\Desktop\EAC convertidos\08 Prigionera d'amor.wav
Pre-gap length 0:00:06.33
Peak level 47.0 %
Extraction speed 2.6 X
Track quality 100.0 %
Test CRC 0686A382
Copy CRC 0686A382
Copy OK
Track 9
Filename f:\Users\Guillermo\Desktop\EAC convertidos\09 O mia cuna, fiorita di sogni.wav
Peak level 38.7 %
Extraction speed 1.9 X
Track quality 99.8 %
Test CRC 44F9D5E2
Copy CRC 44F9D5E2
Copy OK
Track 10
Filename f:\Users\Guillermo\Desktop\EAC convertidos\10 Dai verzier dei Monaldeschi.wav
Peak level 39.3 %
Extraction speed 2.6 X
Track quality 100.0 %
Test CRC 4361521F
Copy CRC 4361521F
Copy OK
Track 11
Filename f:\Users\Guillermo\Desktop\EAC convertidos\11 O madonna, traemmo d'Oriente.wav
Peak level 48.7 %
Extraction speed 2.9 X
Track quality 99.9 %
Test CRC F0EC4C38
Copy CRC F0EC4C38
Copy OK
Track 12
Filename f:\Users\Guillermo\Desktop\EAC convertidos\12 Io nei giardini aspetto.wav
Peak level 36.7 %
Extraction speed 1.0 X
Track quality 99.2 %
Copy CRC 7DA3A06D
Copy OK
Track 13
Filename f:\Users\Guillermo\Desktop\EAC convertidos\13 Pur dolento son io.wav
Peak level 50.4 %
Extraction speed 3.1 X
Track quality 99.9 %
Test CRC 891852D0
Copy CRC 891852D0
Copy OK
Track 14
Filename f:\Users\Guillermo\Desktop\EAC convertidos\14 Popolo, esulta.wav
Pre-gap length 0:00:04.66
Peak level 53.3 %
Extraction speed 3.4 X
Track quality 99.9 %
Test CRC 5683C100
Copy CRC 5683C100
Copy OK
Track 15
Filename f:\Users\Guillermo\Desktop\EAC convertidos\15 il mio fratello ov'e.wav
Peak level 50.6 %
Extraction speed 3.4 X
Track quality 100.0 %
Test CRC 01D06CE3
Copy CRC 01D06CE3
Copy OK
Track 16
Filename f:\Users\Guillermo\Desktop\EAC convertidos\16 Gloria, ove sei.wav
Peak level 47.8 %
Extraction speed 3.9 X
Track quality 100.0 %
Test CRC A6959FC6
Copy CRC A6959FC6
Copy OK
No errors occurred
End of status report
==== Log checksum 4B2C7DD3CD4A9F9D4648A8A4CE2E8E37352EBD321691BF9FF6C1C0B3848822A7 ====

Содержание индексной карты (.CUE)

REM GENRE Opera
REM DATE 1969
REM DISCID F5128810
REM COMMENT "ExactAudioCopy v1.0b3"
FILE "01 Or si rinnovi il bando dell'indulto.wav" WAVE
TRACK 01 AUDIO
PREGAP 00:00:33
INDEX 01 00:00:00
FILE "02 Fonte muta e profonda.wav" WAVE
TRACK 02 AUDIO
INDEX 01 00:00:00
FILE "03 Al Ciel sia lode.wav" WAVE
TRACK 03 AUDIO
INDEX 01 00:00:00
FILE "04 Storia ho di sangue.wav" WAVE
TRACK 04 AUDIO
INDEX 01 00:00:00
FILE "05 Vergine, d'astri e di viole adorna.wav" WAVE
TRACK 05 AUDIO
INDEX 01 00:00:00
FILE "06 Fuorusciti, e gia l'ora del rivarco.wav" WAVE
TRACK 06 AUDIO
INDEX 01 00:00:00
FILE "07 Conoscetemi alfin.wav" WAVE
TRACK 07 AUDIO
INDEX 01 00:00:00
TRACK 08 AUDIO
INDEX 00 01:24:38
FILE "08 Prigionera d'amor.wav" WAVE
INDEX 01 00:00:00
FILE "09 O mia cuna, fiorita di sogni.wav" WAVE
TRACK 09 AUDIO
INDEX 01 00:00:00
FILE "10 Dai verzier dei Monaldeschi.wav" WAVE
TRACK 10 AUDIO
INDEX 01 00:00:00
FILE "11 O madonna, traemmo d'Oriente.wav" WAVE
TRACK 11 AUDIO
INDEX 01 00:00:00
FILE "12 Io nei giardini aspetto.wav" WAVE
TRACK 12 AUDIO
INDEX 01 00:00:00
FILE "13 Pur dolento son io.wav" WAVE
TRACK 13 AUDIO
INDEX 01 00:00:00
TRACK 14 AUDIO
INDEX 00 08:29:25
FILE "14 Popolo, esulta.wav" WAVE
INDEX 01 00:00:00
FILE "15 il mio fratello ov'e.wav" WAVE
TRACK 15 AUDIO
INDEX 01 00:00:00
FILE "16 Gloria, ove sei.wav" WAVE
TRACK 16 AUDIO
INDEX 01 00:00:00

Треклист

Act I:
1. Or si rinnovi il bando (Aquilante)
2. Fonte muta e profonda (Gloria)
3. Al ciel sia lode (Lionetto)
4. Storia ho di sangue (Lionetto)
5. Vergine, d'astri e di viole adorna (Gloria)
6. Fuorusciti, e gia l'ora (Aquilante)
7. Conoscetemi alfin! (Lionetto)
Act II:
8. Prigioniera d'amor (La Senesse)
9. O mia cuna (Gloria)
10. Dal verzier dei Monaldeschi (Chorus)
11. O Mad onna (Bardo)
12. Io nei giardini aspetto (Bardo)
13. Pur dolente son io (Lionetto)
Act III:
14. Popolo, esulta (Lionetto)
15. Il mio fratello ov'e (Lionetto)
16. Gloria, ove sei (Lionetto)



Показать сообщения:    

Текущее время: 09-Дек 01:08

Часовой пояс: UTC + 3


Вы не можете начинать темы
Вы не можете отвечать на сообщения
Вы не можете редактировать свои сообщения
Вы не можете удалять свои сообщения
Вы не можете голосовать в опросах
Вы не можете прикреплять файлы к сообщениям
Вы не можете скачивать файлы