(Opera) Jules Massenet - Sapho / Жюль Массне - Сафо (Roger Boutry; Renee Doria, Gines Sirera, Gisele Ory, Adrien Legros, Elya Waisman), 1977 - studio recording / 1998, FLAC (tracks+.cue), lossless


 

[Цитировать]

Jules Massenet - Sapho / Жюль Массне - Сафо (Roger Boutry; Renée Doria, Ginès Sirera, Gisèle Ory, Adrien Legros, Elya Waisman)
Жанр: Opera
Страна-производитель диска: Франция
Год издания диска: 1998
Издатель (лейбл): SNA
Дата записи: 1977
Аудиокодек: FLAC
Тип рипа: tracks+.cue
Битрейт аудио: lossless
Продолжительность: 129:28
Источник: релизер (Guillermo)
Исполнители:
Fanny Legrand - Renée Doria,
Jean Gaussin - Ginès Sirera,
Divonne - Gisèle Ory,
Césaire - Adrien Legros,
Irène - Elya Waisman,
Caoudal - Gamboa René,
La Borderie - Christian Baudéan,
Le Patron - Jean-Jacques Doumène.
Conductor - Roger Boutry,
Orchestre Symphonique de la Garde Républicaine,
Chorale Stéphane Caillat.
Recorded on June and July, 1976, and June 1977 in the Salle Wagram, Paris.

Лог создания рипаЛог создания рипа CD 1

Exact Audio Copy V1.0 beta 3 from 29. August 2011
EAC extraction logfile from 5. June 2015, 17:54
Renee Doria/ Roger Boutry (1978) / Massenet - Sapho (CD 1)
Used drive : HL-DT-STDVDRAM GH24NSC0 Adapter: 3 ID: 0
Read mode : Secure
Utilize accurate stream : Yes
Defeat audio cache : Yes
Make use of C2 pointers : No
Read offset correction : 6
Overread into Lead-In and Lead-Out : No
Fill up missing offset samples with silence : Yes
Delete leading and trailing silent blocks : No
Null samples used in CRC calculations : Yes
Used interface : Native Win32 interface for Win NT & 2000
Used output format : User Defined Encoder
Selected bitrate : 768 kBit/s
Quality : High
Add ID3 tag : No
Command line compressor : C:\Program Files (x86)\Exact Audio Copy\FLAC\FLAC.EXE
Additional command line options : -8 -V -T "ARTIST=%artist%" -T "TITLE=%title%" -T "ALBUM=%albumtitle%" -T "DATE=%year%" -T "TRACKNUMBER=%tracknr%" -T "GENRE=%genre%" -T "PERFORMER=%albuminterpret%" -T "COMPOSER=%composer%" %haslyrics%--tag-from-file=LYRICS="%lyricsfile%"%haslyrics% -T "ALBUMARTIST=%albumartist%" -T "DISCNUMBER=%cdnumber%" -T "TOTALDISCS=%totalcds%" -T "TOTALTRACKS=%numtracks%" -T "COMMENT=%comment%" %source% -o %dest%
TOC of the extracted CD
Track | Start | Length | Start sector | End sector
---------------------------------------------------------
1 | 0:00.00 | 1:31.37 | 0 | 6861
2 | 1:31.37 | 5:43.38 | 6862 | 32624
3 | 7:15.00 | 0:40.15 | 32625 | 35639
4 | 7:55.15 | 3:31.42 | 35640 | 51506
5 | 11:26.57 | 2:14.45 | 51507 | 61601
6 | 13:41.27 | 3:05.48 | 61602 | 75524
7 | 16:47.00 | 3:24.47 | 75525 | 90871
8 | 20:11.47 | 2:41.48 | 90872 | 102994
9 | 22:53.20 | 6:06.60 | 102995 | 130504
10 | 29:00.05 | 3:10.00 | 130505 | 144754
11 | 32:10.05 | 4:08.50 | 144755 | 163404
12 | 36:18.55 | 2:58.37 | 163405 | 176791
13 | 39:17.17 | 3:21.23 | 176792 | 191889
14 | 42:38.40 | 1:10.62 | 191890 | 197201
15 | 43:49.27 | 5:01.13 | 197202 | 219789
16 | 48:50.40 | 5:00.67 | 219790 | 242356
17 | 53:51.32 | 5:21.58 | 242357 | 266489
18 | 59:13.15 | 3:55.45 | 266490 | 284159
19 | 63:08.60 | 4:15.70 | 284160 | 303354
Track 1
Filename f:\Users\Guillermo\Desktop\EAC convertidos\01 Prelude.wav
Pre-gap length 0:00:02.00
Peak level 65.1 %
Extraction speed 1.2 X
Track quality 100.0 %
Test CRC 0813D16B
Copy CRC 0813D16B
Copy OK
Track 2
Filename f:\Users\Guillermo\Desktop\EAC convertidos\02 Ohe ! jeunesse.wav
Pre-gap length 0:00:02.00
Peak level 83.6 %
Extraction speed 1.7 X
Track quality 99.9 %
Test CRC BB93638C
Copy CRC BB93638C
Copy OK
Track 3
Filename f:\Users\Guillermo\Desktop\EAC convertidos\03 Entree de Fanny.wav
Pre-gap length 0:00:02.00
Peak level 98.0 %
Extraction speed 0.9 X
Track quality 100.0 %
Test CRC 2B33A171
Copy CRC 2B33A171
Copy OK
Track 4
Filename f:\Users\Guillermo\Desktop\EAC convertidos\04 Air de Jean.wav
Pre-gap length 0:00:02.00
Peak level 73.3 %
Extraction speed 1.6 X
Track quality 99.8 %
Test CRC 754FDA78
Copy CRC 754FDA78
Copy OK
Track 5
Filename f:\Users\Guillermo\Desktop\EAC convertidos\05 Allez, jolis farceurs.wav
Pre-gap length 0:00:02.00
Peak level 78.2 %
Extraction speed 1.8 X
Track quality 100.0 %
Test CRC F56BB2A4
Copy CRC F56BB2A4
Copy OK
Track 6
Filename f:\Users\Guillermo\Desktop\EAC convertidos\06 Duo 'Quel est ce beau gracon'.wav
Pre-gap length 0:00:02.00
Peak level 75.4 %
Extraction speed 2.0 X
Track quality 100.0 %
Test CRC 5AB5BC61
Copy CRC 5AB5BC61
Copy OK
Track 7
Filename f:\Users\Guillermo\Desktop\EAC convertidos\07 Scene 2 - Duo jean Cesaire.wav
Pre-gap length 0:00:02.00
Peak level 71.5 %
Extraction speed 2.2 X
Track quality 100.0 %
Test CRC 0E709A00
Copy CRC 0E709A00
Copy OK
Track 8
Filename f:\Users\Guillermo\Desktop\EAC convertidos\08 C'est nous.wav
Pre-gap length 0:00:02.00
Peak level 90.4 %
Extraction speed 2.2 X
Track quality 100.0 %
Test CRC F9D29F20
Copy CRC F9D29F20
Copy OK
Track 9
Filename f:\Users\Guillermo\Desktop\EAC convertidos\09 Duo Irene Jean.wav
Pre-gap length 0:00:02.00
Peak level 74.4 %
Extraction speed 2.4 X
Track quality 99.9 %
Test CRC FACCCBC3
Copy CRC FACCCBC3
Copy OK
Track 10
Filename f:\Users\Guillermo\Desktop\EAC convertidos\10 Air de la lampe.wav
Pre-gap length 0:00:02.00
Peak level 94.8 %
Extraction speed 2.5 X
Track quality 100.0 %
Test CRC 7554F444
Copy CRC 7554F444
Copy OK
Track 11
Filename f:\Users\Guillermo\Desktop\EAC convertidos\11 Ils s'en vont.wav
Pre-gap length 0:00:02.00
Peak level 81.7 %
Extraction speed 2.7 X
Track quality 100.0 %
Test CRC 0E547511
Copy CRC 0E547511
Copy OK
Track 12
Filename f:\Users\Guillermo\Desktop\EAC convertidos\12 Duo Fanny Jean.wav
Pre-gap length 0:00:02.00
Peak level 87.5 %
Extraction speed 2.6 X
Track quality 100.0 %
Test CRC 5B6CE993
Copy CRC 5B6CE993
Copy OK
Track 13
Filename f:\Users\Guillermo\Desktop\EAC convertidos\13 Ce que j'appelle beau.wav
Pre-gap length 0:00:02.00
Peak level 95.9 %
Extraction speed 2.8 X
Track quality 100.0 %
Test CRC 7F9DBA04
Copy CRC 7F9DBA04
Copy OK
Track 14
Filename f:\Users\Guillermo\Desktop\EAC convertidos\14 O Magali.wav
Pre-gap length 0:00:02.00
Peak level 80.4 %
Extraction speed 2.0 X
Track quality 100.0 %
Test CRC F49BD919
Copy CRC F49BD919
Copy OK
Track 15
Filename f:\Users\Guillermo\Desktop\EAC convertidos\15 Duo 'O ma Fanny'.wav
Pre-gap length 0:00:02.00
Peak level 77.4 %
Extraction speed 3.1 X
Track quality 100.0 %
Test CRC F4ED71FC
Copy CRC F4ED71FC
Copy OK
Track 16
Filename f:\Users\Guillermo\Desktop\EAC convertidos\16 Scene 3 - uo Fanny Jean.wav
Pre-gap length 0:00:02.00
Peak level 83.7 %
Extraction speed 3.2 X
Track quality 100.0 %
Test CRC 53BC5E41
Copy CRC 53BC5E41
Copy OK
Track 17
Filename f:\Users\Guillermo\Desktop\EAC convertidos\17 'Par ici! par ici'.wav
Pre-gap length 0:00:02.00
Peak level 85.7 %
Extraction speed 3.4 X
Track quality 100.0 %
Test CRC C797CFFC
Copy CRC C797CFFC
Copy OK
Track 18
Filename f:\Users\Guillermo\Desktop\EAC convertidos\18 Ces cheveux, ce teint.wav
Pre-gap length 0:00:02.00
Peak level 54.1 %
Extraction speed 3.3 X
Track quality 100.0 %
Test CRC ABC35270
Copy CRC ABC35270
Copy OK
Track 19
Filename f:\Users\Guillermo\Desktop\EAC convertidos\19 Je vous avais menti.wav
Pre-gap length 0:00:02.00
Peak level 95.7 %
Extraction speed 3.4 X
Track quality 100.0 %
Test CRC 5807BEF8
Copy CRC 5807BEF8
Copy OK
No errors occurred
End of status report
==== Log checksum F8CBDCEC2DF4A42D8906FA218116D4C0E31F66BE223461792E1B3D9E336E33AC ====

Лог создания рипа CD 2

Exact Audio Copy V1.0 beta 3 from 29. August 2011
EAC extraction logfile from 5. June 2015, 18:51
Renee Doria / Roger Boutry / Massenet - Sapho ( (Disc 2))
Used drive : HL-DT-STDVDRAM GH24NSC0 Adapter: 3 ID: 0
Read mode : Secure
Utilize accurate stream : Yes
Defeat audio cache : Yes
Make use of C2 pointers : No
Read offset correction : 6
Overread into Lead-In and Lead-Out : No
Fill up missing offset samples with silence : Yes
Delete leading and trailing silent blocks : No
Null samples used in CRC calculations : Yes
Used interface : Native Win32 interface for Win NT & 2000
Used output format : User Defined Encoder
Selected bitrate : 768 kBit/s
Quality : High
Add ID3 tag : No
Command line compressor : C:\Program Files (x86)\Exact Audio Copy\FLAC\FLAC.EXE
Additional command line options : -8 -V -T "ARTIST=%artist%" -T "TITLE=%title%" -T "ALBUM=%albumtitle%" -T "DATE=%year%" -T "TRACKNUMBER=%tracknr%" -T "GENRE=%genre%" -T "PERFORMER=%albuminterpret%" -T "COMPOSER=%composer%" %haslyrics%--tag-from-file=LYRICS="%lyricsfile%"%haslyrics% -T "ALBUMARTIST=%albumartist%" -T "DISCNUMBER=%cdnumber%" -T "TOTALDISCS=%totalcds%" -T "TOTALTRACKS=%numtracks%" -T "COMMENT=%comment%" %source% -o %dest%
TOC of the extracted CD
Track | Start | Length | Start sector | End sector
---------------------------------------------------------
1 | 0:00.00 | 4:13.42 | 0 | 19016
2 | 4:13.42 | 1:59.43 | 19017 | 27984
3 | 6:13.10 | 1:16.25 | 27985 | 33709
4 | 7:29.35 | 4:14.50 | 33710 | 52809
5 | 11:44.10 | 2:07.00 | 52810 | 62334
6 | 13:51.10 | 3:59.57 | 62335 | 80316
7 | 17:50.67 | 7:21.28 | 80317 | 113419
8 | 25:12.20 | 3:02.50 | 113420 | 127119
9 | 28:14.70 | 1:39.35 | 127120 | 134579
10 | 29:54.30 | 4:02.70 | 134580 | 152799
11 | 33:57.25 | 3:06.65 | 152800 | 166814
12 | 37:04.15 | 5:03.55 | 166815 | 189594
13 | 42:07.70 | 2:55.35 | 189595 | 202754
14 | 45:03.30 | 4:27.45 | 202755 | 222824
15 | 49:31.00 | 2:34.42 | 222825 | 234416
16 | 52:05.42 | 4:12.35 | 234417 | 253351
17 | 56:18.02 | 5:42.25 | 253352 | 279026
Track 1
Filename f:\Users\Guillermo\Desktop\EAC convertidos\01 Renee Doria , Scene 4 - Ah! oui ....patir.wav
Pre-gap length 0:00:02.00
Peak level 84.5 %
Extraction speed 1.7 X
Track quality 100.0 %
Test CRC F529D36D
Copy CRC F529D36D
Copy OK
Track 2
Filename f:\Users\Guillermo\Desktop\EAC convertidos\02 Renee Doria , Eh bien, oui!....La ....c'est vrai.wav
Pre-gap length 0:00:02.00
Peak level 87.0 %
Extraction speed 1.5 X
Track quality 100.0 %
Test CRC 135899C4
Copy CRC 135899C4
Copy OK
Track 3
Filename f:\Users\Guillermo\Desktop\EAC convertidos\03 Renee Doria , Oui, brule, ou bien dechire.wav
Pre-gap length 0:00:02.00
Peak level 75.9 %
Extraction speed 1.3 X
Track quality 100.0 %
Test CRC 599D3720
Copy CRC 599D3720
Copy OK
Track 4
Filename f:\Users\Guillermo\Desktop\EAC convertidos\04 Renee Doria , Je voudrais bien lire.wav
Pre-gap length 0:00:02.00
Peak level 98.0 %
Extraction speed 2.0 X
Track quality 100.0 %
Test CRC 3CEAD22F
Copy CRC 3CEAD22F
Copy OK
Track 5
Filename f:\Users\Guillermo\Desktop\EAC convertidos\05 Renee Doria , Si tu savais, m'ami.wav
Pre-gap length 0:00:02.00
Peak level 99.2 %
Extraction speed 1.8 X
Track quality 100.0 %
Test CRC 610F32D4
Copy CRC 610F32D4
Copy OK
Track 6
Filename f:\Users\Guillermo\Desktop\EAC convertidos\06 Renee Doria , Quel est donc ce denier paquet.wav
Pre-gap length 0:00:02.00
Peak level 94.6 %
Extraction speed 2.2 X
Track quality 100.0 %
Test CRC 71F048F7
Copy CRC 71F048F7
Copy OK
Track 7
Filename f:\Users\Guillermo\Desktop\EAC convertidos\07 Renee Doria , Scene 5 - Eh! bien Mere !.wav
Pre-gap length 0:00:02.00
Peak level 87.2 %
Extraction speed 2.6 X
Track quality 100.0 %
Test CRC C45FF366
Copy CRC C45FF366
Copy OK
Track 8
Filename f:\Users\Guillermo\Desktop\EAC convertidos\08 Renee Doria , Vous souffrez donc.wav
Pre-gap length 0:00:02.00
Peak level 80.6 %
Extraction speed 2.4 X
Track quality 100.0 %
Test CRC 9FDA9F8C
Copy CRC 9FDA9F8C
Copy OK
Track 9
Filename f:\Users\Guillermo\Desktop\EAC convertidos\09 Renee Doria , Jean! MOn pere!.wav
Pre-gap length 0:00:02.00
Peak level 76.8 %
Extraction speed 2.0 X
Track quality 100.0 %
Test CRC CF8764C5
Copy CRC CF8764C5
Copy OK
Track 10
Filename f:\Users\Guillermo\Desktop\EAC convertidos\10 Renee Doria , Ne m'en veux pas d'etre venue.wav
Pre-gap length 0:00:02.00
Peak level 73.7 %
Extraction speed 2.6 X
Track quality 100.0 %
Test CRC DAEF3E15
Copy CRC DAEF3E15
Copy OK
Track 11
Filename f:\Users\Guillermo\Desktop\EAC convertidos\11 Renee Doria , Pendant un an je fus ta femme.wav
Pre-gap length 0:00:02.00
Peak level 79.9 %
Extraction speed 2.6 X
Track quality 100.0 %
Test CRC F564EAA4
Copy CRC F564EAA4
Copy OK
Track 12
Filename f:\Users\Guillermo\Desktop\EAC convertidos\12 Renee Doria , Non, je ne puis.wav
Pre-gap length 0:00:02.00
Peak level 93.6 %
Extraction speed 3.0 X
Track quality 100.0 %
Test CRC B3036AC4
Copy CRC B3036AC4
Copy OK
Track 13
Filename f:\Users\Guillermo\Desktop\EAC convertidos\13 Renee Doria , Scene 6 - Introduction.wav
Pre-gap length 0:00:02.00
Peak level 66.5 %
Extraction speed 2.7 X
Track quality 100.0 %
Test CRC EBF165AD
Copy CRC EBF165AD
Copy OK
Track 14
Filename f:\Users\Guillermo\Desktop\EAC convertidos\14 Renee Doria , Demain, je patirai.wav
Pre-gap length 0:00:02.00
Peak level 97.0 %
Extraction speed 3.1 X
Track quality 100.0 %
Test CRC F98480A6
Copy CRC F98480A6
Copy OK
Track 15
Filename f:\Users\Guillermo\Desktop\EAC convertidos\15 Renee Doria , Je comprends aujourd hui.wav
Pre-gap length 0:00:02.00
Peak level 68.7 %
Extraction speed 2.2 X
Track quality 99.8 %
Test CRC 53E3FCB5
Copy CRC 53E3FCB5
Copy OK
Track 16
Filename f:\Users\Guillermo\Desktop\EAC convertidos\16 Renee Doria , Fanny, c'est vous.wav
Pre-gap length 0:00:02.00
Peak level 98.0 %
Extraction speed 3.2 X
Track quality 100.0 %
Test CRC F6FF6247
Copy CRC F6FF6247
Copy OK
Track 17
Filename f:\Users\Guillermo\Desktop\EAC convertidos\17 Renee Doria , Calme-toi maintenant.wav
Pre-gap length 0:00:02.00
Peak level 98.0 %
Extraction speed 3.5 X
Track quality 100.0 %
Test CRC 5B31D094
Copy CRC 5B31D094
Copy OK
No errors occurred
End of status report
==== Log checksum 063CF3C287F328990C6C02E2B0F1D7EC06AC9DFC104991EEE2ACC60A376B0A48 ====

Содержание индексной карты (.CUE)Содержание индексной карты (.CUE) CD 1

REM GENRE Opera
REM DISCID 070FCC13
REM COMMENT "ExactAudioCopy v1.0b3"
FILE "01 Prelude.wav" WAVE
TRACK 01 AUDIO
INDEX 01 00:00:00
TRACK 02 AUDIO
INDEX 00 01:29:37
FILE "02 Ohe ! jeunesse.wav" WAVE
INDEX 01 00:00:00
TRACK 03 AUDIO
INDEX 00 05:41:38
FILE "03 Entree de Fanny.wav" WAVE
INDEX 01 00:00:00
TRACK 04 AUDIO
INDEX 00 00:38:15
FILE "04 Air de Jean.wav" WAVE
INDEX 01 00:00:00
TRACK 05 AUDIO
INDEX 00 03:29:42
FILE "05 Allez, jolis farceurs.wav" WAVE
INDEX 01 00:00:00
TRACK 06 AUDIO
INDEX 00 02:12:45
FILE "06 Duo 'Quel est ce beau gracon'.wav" WAVE
INDEX 01 00:00:00
TRACK 07 AUDIO
INDEX 00 03:03:48
FILE "07 Scene 2 - Duo jean Cesaire.wav" WAVE
INDEX 01 00:00:00
TRACK 08 AUDIO
INDEX 00 03:22:47
FILE "08 C'est nous.wav" WAVE
INDEX 01 00:00:00
TRACK 09 AUDIO
INDEX 00 02:39:48
FILE "09 Duo Irene Jean.wav" WAVE
INDEX 01 00:00:00
TRACK 10 AUDIO
INDEX 00 06:04:60
FILE "10 Air de la lampe.wav" WAVE
INDEX 01 00:00:00
TRACK 11 AUDIO
INDEX 00 03:08:00
FILE "11 Ils s'en vont.wav" WAVE
INDEX 01 00:00:00
TRACK 12 AUDIO
INDEX 00 04:06:50
FILE "12 Duo Fanny Jean.wav" WAVE
INDEX 01 00:00:00
TRACK 13 AUDIO
INDEX 00 02:56:37
FILE "13 Ce que j'appelle beau.wav" WAVE
INDEX 01 00:00:00
TRACK 14 AUDIO
INDEX 00 03:19:23
FILE "14 O Magali.wav" WAVE
INDEX 01 00:00:00
TRACK 15 AUDIO
INDEX 00 01:08:62
FILE "15 Duo 'O ma Fanny'.wav" WAVE
INDEX 01 00:00:00
TRACK 16 AUDIO
INDEX 00 04:59:13
FILE "16 Scene 3 - uo Fanny Jean.wav" WAVE
INDEX 01 00:00:00
TRACK 17 AUDIO
INDEX 00 04:58:67
FILE "17 'Par ici! par ici'.wav" WAVE
INDEX 01 00:00:00
TRACK 18 AUDIO
INDEX 00 05:19:58
FILE "18 Ces cheveux, ce teint.wav" WAVE
INDEX 01 00:00:00
TRACK 19 AUDIO
INDEX 00 03:53:45
FILE "19 Je vous avais menti.wav" WAVE
INDEX 01 00:00:00

Содержание индексной карты (.CUE) CD 2

REM GENRE Opera
REM DISCID EE0E8811
REM COMMENT "ExactAudioCopy v1.0b3"
FILE "01 Renee Doria , Scene 4 - Ah! oui ....patir.wav" WAVE
TRACK 01 AUDIO
INDEX 01 00:00:00
TRACK 02 AUDIO
INDEX 00 04:11:42
FILE "02 Renee Doria , Eh bien, oui!....La ....c'est vrai.wav" WAVE
INDEX 01 00:00:00
TRACK 03 AUDIO
INDEX 00 01:57:43
FILE "03 Renee Doria , Oui, brule, ou bien dechire.wav" WAVE
INDEX 01 00:00:00
TRACK 04 AUDIO
INDEX 00 01:14:25
FILE "04 Renee Doria , Je voudrais bien lire.wav" WAVE
INDEX 01 00:00:00
TRACK 05 AUDIO
INDEX 00 04:12:50
FILE "05 Renee Doria , Si tu savais, m'ami.wav" WAVE
INDEX 01 00:00:00
TRACK 06 AUDIO
INDEX 00 02:05:00
FILE "06 Renee Doria , Quel est donc ce denier paquet.wav" WAVE
INDEX 01 00:00:00
TRACK 07 AUDIO
INDEX 00 03:57:57
FILE "07 Renee Doria , Scene 5 - Eh! bien Mere !.wav" WAVE
INDEX 01 00:00:00
TRACK 08 AUDIO
INDEX 00 07:19:28
FILE "08 Renee Doria , Vous souffrez donc.wav" WAVE
INDEX 01 00:00:00
TRACK 09 AUDIO
INDEX 00 03:00:50
FILE "09 Renee Doria , Jean! MOn pere!.wav" WAVE
INDEX 01 00:00:00
TRACK 10 AUDIO
INDEX 00 01:37:35
FILE "10 Renee Doria , Ne m'en veux pas d'etre venue.wav" WAVE
INDEX 01 00:00:00
TRACK 11 AUDIO
INDEX 00 04:00:70
FILE "11 Renee Doria , Pendant un an je fus ta femme.wav" WAVE
INDEX 01 00:00:00
TRACK 12 AUDIO
INDEX 00 03:04:65
FILE "12 Renee Doria , Non, je ne puis.wav" WAVE
INDEX 01 00:00:00
TRACK 13 AUDIO
INDEX 00 05:01:55
FILE "13 Renee Doria , Scene 6 - Introduction.wav" WAVE
INDEX 01 00:00:00
TRACK 14 AUDIO
INDEX 00 02:53:35
FILE "14 Renee Doria , Demain, je patirai.wav" WAVE
INDEX 01 00:00:00
TRACK 15 AUDIO
INDEX 00 04:25:45
FILE "15 Renee Doria , Je comprends aujourd hui.wav" WAVE
INDEX 01 00:00:00
TRACK 16 AUDIO
INDEX 00 02:32:42
FILE "16 Renee Doria , Fanny, c'est vous.wav" WAVE
INDEX 01 00:00:00
TRACK 17 AUDIO
INDEX 00 04:10:35
FILE "17 Renee Doria , Calme-toi maintenant.wav" WAVE
INDEX 01 00:00:00



Показать сообщения:    

Текущее время: 03-Дек 16:39

Часовой пояс: UTC + 3


Вы не можете начинать темы
Вы не можете отвечать на сообщения
Вы не можете редактировать свои сообщения
Вы не можете удалять свои сообщения
Вы не можете голосовать в опросах
Вы не можете прикреплять файлы к сообщениям
Вы не можете скачивать файлы