KettleX Basics Series 1 [2014, Фитнес, DVDRip, ENG] (Видеоурок)


Статистика раздачи [Обновить пиров]
Размер:  767 MB   |    Зарегистрирован:  8 месяцев 17 дней   |    Скачан:  0 раз

Полного источника не было: Никогда

 
   
 
 
 

[Цитировать]

KettleX Basics Series 1
Страна: USA
Тематика: Фитнес
Автор: Lorna Kleidman
Тип раздаваемого материала: Видеоурок
Продолжительность: 00:56:09
Год выпуска: 2014
Язык: Английский
Перевод: Отсутствует
Описание: KettleX is a complete workout that will help you achieve your best results in minimal time! No matter your fitness level, KettleX will scorch fat, trim your waistline and strengthen and stabilize your entire body. Lorna's one-of-a-kind descriptions and easy to follow routines make this intense workout fun and effective, getting you real results in the privacy of your own home! /
KettleX является полноценной тренировкой, которая поможет вам достичь ваших лучших результатов в минимальные сроки! Независимо от вашего уровня физической подготовки, KettleX не будет палить жир, обрезать талию и укреплять и стабилизировать ваше тело. Единственный в своем роде описания и легкие последовательные интенсивные тренировки Лорны веселы и эффективны, позволят вам получить реальные результаты в вашем собственном доме!
KettleX Advanced Series 1 [2014, Фитнес, DVDRip, ENG] (Видеоурок)
Качество: DVDRip
Формат: MP4
Видео кодек: VC-1
Аудио кодек: AAC
Видео: AVC1, 720x480@853х480, 16:9, 29.97 fps, 1744 Kbps
Аудио: AAC, 48.0 KHz, 160 Kbps, 2 channels

Содержание

01 Tutorial
02 Warm Up
03 KettleX Basics Workout
04 Cool Down

MediaInfo

General
Format : MPEG-4
Format profile : Base Media / Version 2
Codec ID : mp42
File size : 428 MiB
Duration : 31mn 19s
Overall bit rate mode : Variable
Overall bit rate : 1 911 Kbps
Writing application : HandBrake 0.10.1 2015030800
Video #1
ID : 1
Format : AVC
Format/Info : Advanced Video Codec
Format profile : Main@L4.0
Format settings, CABAC : Yes
Format settings, ReFrames : 4 frames
Codec ID : avc1
Codec ID/Info : Advanced Video Coding
Duration : 31mn 19s
Bit rate : 1 744 Kbps
Width : 720 pixels
Height : 480 pixels
Display aspect ratio : 16:9
Original display aspect ratio : 16:9
Frame rate mode : Constant
Frame rate : 29.970 fps
Standard : NTSC
Color space : YUV
Chroma subsampling : 4:2:0
Bit depth : 8 bits
Scan type : Progressive
Bits/(Pixel*Frame) : 0.168
Stream size : 391 MiB (91%)
Writing library : x264 core 142 r2479 dd79a61
Color primaries : BT.601 NTSC
Transfer characteristics : BT.709
Matrix coefficients : BT.601
Audio #2
ID : 2
Format : AAC
Format/Info : Advanced Audio Codec
Format profile : LC
Codec ID : 40
Duration : 31mn 19s
Bit rate mode : Variable
Bit rate : 161 Kbps
Channel(s) : 2 channels
Channel positions : Front: L R
Sampling rate : 48.0 KHz
Compression mode : Lossy
Stream size : 36.0 MiB (8%)
Title : Stereo
Menu #3
ID : 3
Codec ID : text
Duration : 31mn 19s
Language : English
Bit rate mode : CBR
[teatrix.ru].t21378.torrent 
Торрент: Зарегистрирован [ 2016-03-20 12:10 ] · 437E50A9F86ED35E50EB4A9FB38ADA1F6D7E20C1

Скачать .torrent

Скачать

16 KB

Статус: проверено
Скачан: 0 раз
Размер: 767 MB
terms.php



Быстрый ответ

Имя:

      
Для отправки сообщений необходимо включить JavaScript
Показать сообщения:    

Текущее время: 06-Дек 17:11

Часовой пояс: UTC + 3


Вы можете начинать темы
Вы можете отвечать на сообщения
Вы не можете редактировать свои сообщения
Вы не можете удалять свои сообщения
Вы не можете голосовать в опросах
Вы не можете прикреплять файлы к сообщениям
Вы можете скачивать файлы