(Classical) Giacomo Carissimi - Oratorios - Ensemble Seicentonovecento, Flavio Colusso - 9CD - 2013, FLAC (image+.cue) lossless


Статистика раздачи [Обновить пиров]
Размер:  2.64 GB   |    Зарегистрирован:  8 месяцев 17 дней   |    Скачан:  0 раз

Полного источника не было: Никогда

 
   
 
 
 

[Цитировать]

Giacomo Carissimi - Oratorios - Ensemble Seicentonovecento, Flavio Colusso
Жанр: Classical
Год издания диска: 2013
Издатель (лейбл): Brilliant Classics
Номер по каталогу: 94491
Дата записи: 1994-1996
Аудиокодек: FLAC
Тип рипа: image+.cue
Битрейт аудио: lossless
Продолжительность: 10:03:39
Источник: собственный рип
Наличие сканов в содержимом раздачи: да
Треклист:
Giacomo Carissimi (1605-1674)
Oratorios

CD1

[1]-[4] Jonas
[5]-[8] Jepthe (Jephtha)
[9]-[13] Historia di Job

CD2

[1]-[5] Diluvium universale (The Flood)
[6]-[7] Cain
[8]-[12] Judicium extremum (The Last Judgement)

CD3

[1] Audite sancti
[2] Salve Jesu
[3] Quo tam laetus
[4] Quis est hic
[5] Suscitavit Dominus
[6] Qui non renuntiat
[7] Cum reverteretur David
[8] Historia dei pellegrini di Emmaus (The Pilgrims of Emmaus)

CD4

[1]-[7] Historia divitis (Dives malus)
[8] Vanitas vanitatum I 'La vanité des hommes'
[9]-[10] Vir frugi et pater familias

CD5

[1]-[4] Balthazar
[5]-[8] Martyres
[9]-[14] Vanitas vanitatum II 'Contempus mundi'

CD6

[1]-[3] Judicium Salomonis
[4]-[6] Abraham et Isaac
[7]-[8] Dicite nobis
[9]-[12] Historia Davidis et Jonathae

CD7

[1] Lamentatio damnatorum
[2] Lucifer
[3] Sub umbra noctis
[4] Anima et Angelus
[5]-[8] Felicitas beatorum

CD8

[1]-[6] Sponsa canticorum
[7] Tolle sponsa
[8]-[10] Domine quis habitabit
[11]-[15] Ezechias

CD9

[1]-[6] Oratorio della Santissima Vergine
[7] Oratorio di Daniele profeta
Исполнители:
Ensemble Seicentonovecento
Flavio Colusso

Лог создания рипа: CD1

Exact Audio Copy V1.0 beta 3 from 29. August 2011
EAC extraction logfile from 9. November 2014, 20:36
Ensemble Seicentonovecento, Flavio Colusso / Carissimi - Oratorios - CD1
Used drive : HL-DT-STDVDRAM GU70N Adapter: 0 ID: 0
Read mode : Secure
Utilize accurate stream : Yes
Defeat audio cache : Yes
Make use of C2 pointers : No
Read offset correction : 48
Overread into Lead-In and Lead-Out : No
Fill up missing offset samples with silence : Yes
Delete leading and trailing silent blocks : No
Null samples used in CRC calculations : Yes
Used interface : Native Win32 interface for Win NT & 2000
Used output format : User Defined Encoder
Selected bitrate : 128 kBit/s
Quality : High
Add ID3 tag : No
Command line compressor : C:\Program Files (x86)\Exact Audio Copy\Flac\flac.exe
Additional command line options : -V -8 -T "Date=%year%" -T "Genre=%genre%" %source%
TOC of the extracted CD
Track | Start | Length | Start sector | End sector
---------------------------------------------------------
1 | 0:00.00 | 7:42.24 | 0 | 34673
2 | 7:42.24 | 4:25.65 | 34674 | 54613
3 | 12:08.14 | 8:25.43 | 54614 | 92531
4 | 20:33.57 | 4:32.08 | 92532 | 112939
5 | 25:05.65 | 6:02.45 | 112940 | 140134
6 | 31:08.35 | 4:23.52 | 140135 | 159911
7 | 35:32.12 | 7:06.29 | 159912 | 191890
8 | 42:38.41 | 10:23.19 | 191891 | 238634
9 | 53:01.60 | 2:58.42 | 238635 | 252026
10 | 56:00.27 | 3:08.44 | 252027 | 266170
11 | 59:08.71 | 1:08.62 | 266171 | 271332
12 | 60:17.58 | 3:20.13 | 271333 | 286345
13 | 63:37.71 | 3:17.57 | 286346 | 301177
Range status and errors
Selected range
Filename C:\temp\Carissimi - Oratorios - Ensemble Seicentonovecento, Colusso\CD1\Carissimi - Oratorios - CD1.wav
Peak level 96.1 %
Extraction speed 2.2 X
Range quality 100.0 %
Test CRC D0DB56A5
Copy CRC D0DB56A5
Copy OK
No errors occurred
AccurateRip summary
Track 1 not present in database
Track 2 not present in database
Track 3 not present in database
Track 4 not present in database
Track 5 not present in database
Track 6 not present in database
Track 7 not present in database
Track 8 not present in database
Track 9 not present in database
Track 10 not present in database
Track 11 not present in database
Track 12 not present in database
Track 13 not present in database
None of the tracks are present in the AccurateRip database
End of status report
==== Log checksum A84D469FCCF9E536A0E8BA51A3EFDF9E0450C9EEF6CD068FD7438F0A77D3D254 ====

Лог создания рипа: CD2

Exact Audio Copy V1.0 beta 3 from 29. August 2011
EAC extraction logfile from 9. November 2014, 21:43
Ensemble Seicentonovecento, Flavio Colusso / Carissimi - Oratorios - CD2
Used drive : HL-DT-STDVDRAM GU70N Adapter: 0 ID: 0
Read mode : Secure
Utilize accurate stream : Yes
Defeat audio cache : Yes
Make use of C2 pointers : No
Read offset correction : 48
Overread into Lead-In and Lead-Out : No
Fill up missing offset samples with silence : Yes
Delete leading and trailing silent blocks : No
Null samples used in CRC calculations : Yes
Used interface : Native Win32 interface for Win NT & 2000
Used output format : User Defined Encoder
Selected bitrate : 128 kBit/s
Quality : High
Add ID3 tag : No
Command line compressor : C:\Program Files (x86)\Exact Audio Copy\Flac\flac.exe
Additional command line options : -V -8 -T "Date=%year%" -T "Genre=%genre%" %source%
TOC of the extracted CD
Track | Start | Length | Start sector | End sector
---------------------------------------------------------
1 | 0:00.00 | 3:05.50 | 0 | 13924
2 | 3:05.50 | 7:47.35 | 13925 | 48984
3 | 10:53.10 | 11:07.20 | 48985 | 99029
4 | 22:00.30 | 1:30.43 | 99030 | 105822
5 | 23:30.73 | 5:47.20 | 105823 | 131867
6 | 29:18.18 | 6:46.09 | 131868 | 162326
7 | 36:04.27 | 1:18.64 | 162327 | 168240
8 | 37:23.16 | 5:44.34 | 168241 | 194074
9 | 43:07.50 | 4:12.17 | 194075 | 212991
10 | 47:19.67 | 2:34.58 | 212992 | 224599
11 | 49:54.50 | 10:44.09 | 224600 | 272908
12 | 60:38.59 | 2:27.12 | 272909 | 283945
Range status and errors
Selected range
Filename C:\temp\Carissimi - Oratorios - Ensemble Seicentonovecento, Colusso\CD2\Carissimi - Oratorios - CD2.wav
Peak level 95.1 %
Extraction speed 2.1 X
Range quality 100.0 %
Test CRC C8506B9E
Copy CRC C8506B9E
Copy OK
No errors occurred
AccurateRip summary
Track 1 not present in database
Track 2 not present in database
Track 3 not present in database
Track 4 not present in database
Track 5 not present in database
Track 6 not present in database
Track 7 not present in database
Track 8 not present in database
Track 9 not present in database
Track 10 not present in database
Track 11 not present in database
Track 12 not present in database
None of the tracks are present in the AccurateRip database
End of status report
==== Log checksum 44DB5597F813903600C5ACB886A78F6DD2C34FDA5BC509BA0AD1863D987798AF ====

Лог создания рипа: CD3

Exact Audio Copy V1.0 beta 3 from 29. August 2011
EAC extraction logfile from 10. November 2014, 0:41
Ensemble Seicentonovecento, Flavio Colusso / Carissimi - Oratorios - CD3
Used drive : HL-DT-STDVDRAM GU70N Adapter: 0 ID: 0
Read mode : Secure
Utilize accurate stream : Yes
Defeat audio cache : Yes
Make use of C2 pointers : No
Read offset correction : 48
Overread into Lead-In and Lead-Out : No
Fill up missing offset samples with silence : Yes
Delete leading and trailing silent blocks : No
Null samples used in CRC calculations : Yes
Used interface : Native Win32 interface for Win NT & 2000
Used output format : User Defined Encoder
Selected bitrate : 128 kBit/s
Quality : High
Add ID3 tag : No
Command line compressor : C:\Program Files (x86)\Exact Audio Copy\Flac\flac.exe
Additional command line options : -V -8 -T "Date=%year%" -T "Genre=%genre%" %source%
TOC of the extracted CD
Track | Start | Length | Start sector | End sector
---------------------------------------------------------
1 | 0:00.00 | 6:07.13 | 0 | 27537
2 | 6:07.13 | 8:38.21 | 27538 | 66408
3 | 14:45.34 | 10:42.48 | 66409 | 114606
4 | 25:28.07 | 8:07.20 | 114607 | 151151
5 | 33:35.27 | 6:31.14 | 151152 | 180490
6 | 40:06.41 | 8:26.40 | 180491 | 218480
7 | 48:33.06 | 4:33.08 | 218481 | 238963
8 | 53:06.14 | 12:23.71 | 238964 | 294759
Range status and errors
Selected range
Filename C:\temp\Carissimi - Oratorios - Ensemble Seicentonovecento, Colusso\CD3\Carissimi - Oratorios - CD3.wav
Peak level 82.6 %
Extraction speed 2.1 X
Range quality 100.0 %
Test CRC A012C52D
Copy CRC A012C52D
Copy OK
No errors occurred
AccurateRip summary
Track 1 not present in database
Track 2 not present in database
Track 3 not present in database
Track 4 not present in database
Track 5 not present in database
Track 6 not present in database
Track 7 not present in database
Track 8 not present in database
None of the tracks are present in the AccurateRip database
End of status report
==== Log checksum 3C9E5C58B61304F15D268E19C1598CB1D5D9B85097034FA1C76AA1796F3EA258 ====

Лог создания рипа: CD4

Exact Audio Copy V1.0 beta 3 from 29. August 2011
EAC extraction logfile from 10. November 2014, 1:51
Ensemble Seicentonovecento, Flavio Colusso / Carissimi - Oratorios - CD4
Used drive : HL-DT-STDVDRAM GU70N Adapter: 0 ID: 0
Read mode : Secure
Utilize accurate stream : Yes
Defeat audio cache : Yes
Make use of C2 pointers : No
Read offset correction : 48
Overread into Lead-In and Lead-Out : No
Fill up missing offset samples with silence : Yes
Delete leading and trailing silent blocks : No
Null samples used in CRC calculations : Yes
Used interface : Native Win32 interface for Win NT & 2000
Used output format : User Defined Encoder
Selected bitrate : 128 kBit/s
Quality : High
Add ID3 tag : No
Command line compressor : C:\Program Files (x86)\Exact Audio Copy\Flac\flac.exe
Additional command line options : -V -8 -T "Date=%year%" -T "Genre=%genre%" %source%
TOC of the extracted CD
Track | Start | Length | Start sector | End sector
---------------------------------------------------------
1 | 0:00.00 | 4:05.17 | 0 | 18391
2 | 4:05.17 | 9:59.68 | 18392 | 63384
3 | 14:05.10 | 13:02.03 | 63385 | 122037
4 | 27:07.13 | 6:30.13 | 122038 | 151300
5 | 33:37.26 | 3:59.34 | 151301 | 169259
6 | 37:36.60 | 4:19.42 | 169260 | 188726
7 | 41:56.27 | 2:20.32 | 188727 | 199258
8 | 44:16.59 | 12:19.42 | 199259 | 254725
9 | 56:36.26 | 10:53.56 | 254726 | 303756
10 | 67:30.07 | 4:34.35 | 303757 | 324341
Range status and errors
Selected range
Filename C:\temp\Carissimi - Oratorios - Ensemble Seicentonovecento, Colusso\CD4\Carissimi - Oratorios - CD4.wav
Peak level 89.8 %
Extraction speed 2.3 X
Range quality 100.0 %
Test CRC 22C5EB63
Copy CRC 22C5EB63
Copy OK
No errors occurred
AccurateRip summary
Track 1 not present in database
Track 2 not present in database
Track 3 not present in database
Track 4 not present in database
Track 5 not present in database
Track 6 not present in database
Track 7 not present in database
Track 8 not present in database
Track 9 not present in database
Track 10 not present in database
None of the tracks are present in the AccurateRip database
End of status report
==== Log checksum CF1D428534A958FF093E44D46B4FA7196C922EAF506D59BE8AA4F273489746F7 ====

Лог создания рипа: CD5

Exact Audio Copy V1.0 beta 3 from 29. August 2011
EAC extraction logfile from 10. November 2014, 8:40
Ensemble Seicentonovecento, Flavio Colusso / Carissimi - Oratorios - CD5
Used drive : HL-DT-STDVDRAM GU70N Adapter: 0 ID: 0
Read mode : Secure
Utilize accurate stream : Yes
Defeat audio cache : Yes
Make use of C2 pointers : No
Read offset correction : 48
Overread into Lead-In and Lead-Out : No
Fill up missing offset samples with silence : Yes
Delete leading and trailing silent blocks : No
Null samples used in CRC calculations : Yes
Used interface : Native Win32 interface for Win NT & 2000
Used output format : User Defined Encoder
Selected bitrate : 128 kBit/s
Quality : High
Add ID3 tag : No
Command line compressor : C:\Program Files (x86)\Exact Audio Copy\Flac\flac.exe
Additional command line options : -V -8 -T "Date=%year%" -T "Genre=%genre%" %source%
TOC of the extracted CD
Track | Start | Length | Start sector | End sector
---------------------------------------------------------
1 | 0:00.00 | 3:22.67 | 0 | 15216
2 | 3:22.67 | 15:18.27 | 15217 | 84093
3 | 18:41.19 | 9:00.34 | 84094 | 124627
4 | 27:41.53 | 5:14.61 | 124628 | 148238
5 | 32:56.39 | 4:25.30 | 148239 | 168143
6 | 37:21.69 | 5:24.65 | 168144 | 192508
7 | 42:46.59 | 2:43.25 | 192509 | 204758
8 | 45:30.09 | 1:41.46 | 204759 | 212379
9 | 47:11.55 | 4:18.74 | 212380 | 231803
10 | 51:30.54 | 3:13.43 | 231804 | 246321
11 | 54:44.22 | 3:00.40 | 246322 | 259861
12 | 57:44.62 | 2:51.11 | 259862 | 272697
13 | 60:35.73 | 3:13.23 | 272698 | 287195
14 | 63:49.21 | 8:37.25 | 287196 | 325995
Range status and errors
Selected range
Filename C:\temp\Carissimi - Oratorios - Ensemble Seicentonovecento, Colusso\CD5\Carissimi - Oratorios - CD5.wav
Peak level 95.8 %
Extraction speed 2.3 X
Range quality 100.0 %
Test CRC F56DEB8B
Copy CRC F56DEB8B
Copy OK
No errors occurred
AccurateRip summary
Track 1 not present in database
Track 2 not present in database
Track 3 not present in database
Track 4 not present in database
Track 5 not present in database
Track 6 not present in database
Track 7 not present in database
Track 8 not present in database
Track 9 not present in database
Track 10 not present in database
Track 11 not present in database
Track 12 not present in database
Track 13 not present in database
Track 14 not present in database
None of the tracks are present in the AccurateRip database
End of status report
==== Log checksum ED2BC0E2075494484A202408B163BD5763A83F4718F977EA17242C5B56E22F46 ====

Лог создания рипа: CD6

Exact Audio Copy V1.0 beta 3 from 29. August 2011
EAC extraction logfile from 10. November 2014, 19:35
Ensemble Seicentonovecento, Flavio Colusso / Carissimi - Oratorios - CD6
Used drive : HL-DT-STDVDRAM GU70N Adapter: 0 ID: 0
Read mode : Secure
Utilize accurate stream : Yes
Defeat audio cache : Yes
Make use of C2 pointers : No
Read offset correction : 48
Overread into Lead-In and Lead-Out : No
Fill up missing offset samples with silence : Yes
Delete leading and trailing silent blocks : No
Null samples used in CRC calculations : Yes
Used interface : Native Win32 interface for Win NT & 2000
Used output format : User Defined Encoder
Selected bitrate : 128 kBit/s
Quality : High
Add ID3 tag : No
Command line compressor : C:\Program Files (x86)\Exact Audio Copy\Flac\flac.exe
Additional command line options : -V -8 -T "Date=%year%" -T "Genre=%genre%" %source%
TOC of the extracted CD
Track | Start | Length | Start sector | End sector
---------------------------------------------------------
1 | 0:00.00 | 13:09.71 | 0 | 59245
2 | 13:09.71 | 3:40.09 | 59246 | 75754
3 | 16:50.05 | 3:20.07 | 75755 | 90761
4 | 20:10.12 | 6:47.31 | 90762 | 121317
5 | 26:57.43 | 6:12.44 | 121318 | 149261
6 | 33:10.12 | 4:38.52 | 149262 | 170163
7 | 37:48.64 | 12:02.03 | 170164 | 224316
8 | 49:50.67 | 2:31.27 | 224317 | 235668
9 | 52:22.19 | 7:05.37 | 235669 | 267580
10 | 59:27.56 | 6:32.74 | 267581 | 297054
11 | 66:00.55 | 5:24.33 | 297055 | 321387
12 | 71:25.13 | 1:43.16 | 321388 | 329128
Range status and errors
Selected range
Filename C:\temp\Carissimi - Oratorios - Ensemble Seicentonovecento, Colusso\CD6\Carissimi - Oratorios - CD6.wav
Peak level 94.9 %
Extraction speed 2.3 X
Range quality 99.9 %
Test CRC BA613DB4
Copy CRC BA613DB4
Copy OK
No errors occurred
AccurateRip summary
Track 1 not present in database
Track 2 not present in database
Track 3 not present in database
Track 4 not present in database
Track 5 not present in database
Track 6 not present in database
Track 7 not present in database
Track 8 not present in database
Track 9 not present in database
Track 10 not present in database
Track 11 not present in database
Track 12 not present in database
None of the tracks are present in the AccurateRip database
End of status report
==== Log checksum 509DAA987B544476915AB58FDD84495A7F72EFE3D636CE2461FE857B77B52CFE ====

Лог создания рипа: CD7

Exact Audio Copy V1.0 beta 3 from 29. August 2011
EAC extraction logfile from 10. November 2014, 21:36
Ensemble Seicentonovecento, Flavio Colusso / Carissimi - Oratorios - CD7
Used drive : HL-DT-STDVDRAM GU70N Adapter: 0 ID: 0
Read mode : Secure
Utilize accurate stream : Yes
Defeat audio cache : Yes
Make use of C2 pointers : No
Read offset correction : 48
Overread into Lead-In and Lead-Out : No
Fill up missing offset samples with silence : Yes
Delete leading and trailing silent blocks : No
Null samples used in CRC calculations : Yes
Used interface : Native Win32 interface for Win NT & 2000
Used output format : User Defined Encoder
Selected bitrate : 128 kBit/s
Quality : High
Add ID3 tag : No
Command line compressor : C:\Program Files (x86)\Exact Audio Copy\Flac\flac.exe
Additional command line options : -V -8 -T "Date=%year%" -T "Genre=%genre%" %source%
TOC of the extracted CD
Track | Start | Length | Start sector | End sector
---------------------------------------------------------
1 | 0:00.00 | 17:15.74 | 0 | 77698
2 | 17:15.74 | 6:10.18 | 77699 | 105466
3 | 23:26.17 | 6:06.67 | 105467 | 132983
4 | 29:33.09 | 8:12.70 | 132984 | 169953
5 | 37:46.04 | 4:42.07 | 169954 | 191110
6 | 42:28.11 | 9:55.38 | 191111 | 235773
7 | 52:23.49 | 6:21.45 | 235774 | 264393
8 | 58:45.19 | 6:36.72 | 264394 | 294165
Range status and errors
Selected range
Filename C:\temp\Carissimi - Oratorios - Ensemble Seicentonovecento, Colusso\CD7\Carissimi - Oratorios - CD7.wav
Peak level 90.5 %
Extraction speed 2.1 X
Range quality 100.0 %
Test CRC D38044CA
Copy CRC D38044CA
Copy OK
No errors occurred
AccurateRip summary
Track 1 not present in database
Track 2 not present in database
Track 3 not present in database
Track 4 not present in database
Track 5 not present in database
Track 6 not present in database
Track 7 not present in database
Track 8 not present in database
None of the tracks are present in the AccurateRip database
End of status report
==== Log checksum 27F377D0C7F8C6B7E7D6CE361D1821866102CA880A4CBA4AECF7D9F59A5DB21A ====

Лог создания рипа: CD8

Exact Audio Copy V1.0 beta 3 from 29. August 2011
EAC extraction logfile from 11. November 2014, 2:20
Ensemble Seicentonovecento, Flavio Colusso / Carissimi - Oratorios - CD8
Used drive : HL-DT-STDVDRAM GU70N Adapter: 0 ID: 0
Read mode : Secure
Utilize accurate stream : Yes
Defeat audio cache : Yes
Make use of C2 pointers : No
Read offset correction : 48
Overread into Lead-In and Lead-Out : No
Fill up missing offset samples with silence : Yes
Delete leading and trailing silent blocks : No
Null samples used in CRC calculations : Yes
Used interface : Native Win32 interface for Win NT & 2000
Used output format : User Defined Encoder
Selected bitrate : 128 kBit/s
Quality : High
Add ID3 tag : No
Command line compressor : C:\Program Files (x86)\Exact Audio Copy\Flac\flac.exe
Additional command line options : -V -8 -T "Date=%year%" -T "Genre=%genre%" %source%
TOC of the extracted CD
Track | Start | Length | Start sector | End sector
---------------------------------------------------------
1 | 0:00.00 | 6:09.22 | 0 | 27696
2 | 6:09.22 | 5:33.12 | 27697 | 52683
3 | 11:42.34 | 2:54.34 | 52684 | 65767
4 | 14:36.68 | 1:59.57 | 65768 | 74749
5 | 16:36.50 | 1:56.69 | 74750 | 83518
6 | 18:33.44 | 5:39.15 | 83519 | 108958
7 | 24:12.59 | 8:11.58 | 108959 | 145841
8 | 32:24.42 | 3:32.52 | 145842 | 161793
9 | 35:57.19 | 3:39.05 | 161794 | 178223
10 | 39:36.24 | 2:58.72 | 178224 | 191645
11 | 42:35.21 | 1:37.22 | 191646 | 198942
12 | 44:12.43 | 2:53.16 | 198943 | 211933
13 | 47:05.59 | 6:41.30 | 211934 | 242038
14 | 53:47.14 | 2:50.65 | 242039 | 254853
15 | 56:38.04 | 4:45.57 | 254854 | 276285
Range status and errors
Selected range
Filename C:\temp\Carissimi - Oratorios - Ensemble Seicentonovecento, Colusso\CD8\Carissimi - Oratorios - CD8.wav
Peak level 92.3 %
Extraction speed 2.1 X
Range quality 100.0 %
Test CRC 255EC6F7
Copy CRC 255EC6F7
Copy OK
No errors occurred
AccurateRip summary
Track 1 not present in database
Track 2 not present in database
Track 3 not present in database
Track 4 not present in database
Track 5 not present in database
Track 6 not present in database
Track 7 not present in database
Track 8 not present in database
Track 9 not present in database
Track 10 not present in database
Track 11 not present in database
Track 12 not present in database
Track 13 not present in database
Track 14 not present in database
Track 15 not present in database
None of the tracks are present in the AccurateRip database
End of status report
==== Log checksum 66F6B99BE24338586A257CB4D8D361CAE3B5FBA698D5BACBFBFBEB605990A0B5 ====

Лог создания рипа: CD9

Exact Audio Copy V1.0 beta 3 from 29. August 2011
EAC extraction logfile from 11. November 2014, 1:12
Ensemble Seicentonovecento, Flavio Colusso / Carissimi - Oratorios - CD9
Used drive : HL-DT-STDVDRAM GU70N Adapter: 0 ID: 0
Read mode : Secure
Utilize accurate stream : Yes
Defeat audio cache : Yes
Make use of C2 pointers : No
Read offset correction : 48
Overread into Lead-In and Lead-Out : No
Fill up missing offset samples with silence : Yes
Delete leading and trailing silent blocks : No
Null samples used in CRC calculations : Yes
Used interface : Native Win32 interface for Win NT & 2000
Used output format : User Defined Encoder
Selected bitrate : 128 kBit/s
Quality : High
Add ID3 tag : No
Command line compressor : C:\Program Files (x86)\Exact Audio Copy\Flac\flac.exe
Additional command line options : -V -8 -T "Date=%year%" -T "Genre=%genre%" %source%
TOC of the extracted CD
Track | Start | Length | Start sector | End sector
---------------------------------------------------------
1 | 0:00.00 | 5:18.40 | 0 | 23889
2 | 5:18.40 | 9:06.58 | 23890 | 64897
3 | 14:25.23 | 1:53.24 | 64898 | 73396
4 | 16:18.47 | 2:55.55 | 73397 | 86576
5 | 19:14.27 | 6:19.73 | 86577 | 115074
6 | 25:34.25 | 1:53.20 | 115075 | 123569
7 | 27:27.45 | 10:01.67 | 123570 | 168711
8 | 37:29.37 | 9:46.37 | 168712 | 212698
9 | 47:15.74 | 7:19.54 | 212699 | 245677
10 | 54:35.53 | 5:34.08 | 245678 | 270735
11 | 60:09.61 | 3:41.02 | 270736 | 287312
Range status and errors
Selected range
Filename C:\temp\Carissimi - Oratorios - Ensemble Seicentonovecento, Colusso\CD9\Carissimi - Oratorios - CD9.wav
Peak level 88.2 %
Extraction speed 2.1 X
Range quality 100.0 %
Test CRC 7BBD0B9A
Copy CRC 7BBD0B9A
Copy OK
No errors occurred
AccurateRip summary
Track 1 not present in database
Track 2 not present in database
Track 3 not present in database
Track 4 not present in database
Track 5 not present in database
Track 6 not present in database
Track 7 not present in database
Track 8 not present in database
Track 9 not present in database
Track 10 not present in database
Track 11 not present in database
None of the tracks are present in the AccurateRip database
End of status report
==== Log checksum 065C1407F5922751DFE6D5EC8192E82E991AF188F94050B7C7A207471AACB694 ====
[teatrix.ru].t21380.torrent 
Торрент: Зарегистрирован [ 2016-03-20 12:10 ] · 7726250E1BAC0FAE0A683C1310B30940718805D7

Скачать .torrent

Скачать

33 KB

Статус: проверено
Скачан: 0 раз
Размер: 2.64 GB
terms.php



Быстрый ответ

Имя:

      
Для отправки сообщений необходимо включить JavaScript
Показать сообщения:    

Текущее время: 06-Дек 20:56

Часовой пояс: UTC + 3


Вы можете начинать темы
Вы можете отвечать на сообщения
Вы не можете редактировать свои сообщения
Вы не можете удалять свои сообщения
Вы не можете голосовать в опросах
Вы не можете прикреплять файлы к сообщениям
Вы можете скачивать файлы