Виктор Пелевин. Писатель П. Попытка идентификации (Борис Караджев, Григорий Рябушев) [2013, документальный, биографический, DVB]


Статистика раздачи [Обновить пиров]
Размер:  1 GB   |    Зарегистрирован:  8 месяцев 18 дней   |    Скачан:  0 раз

Полного источника не было: Никогда

 
   
 
 
 

[Цитировать]

Писатель "П"
Попытка идентификации- Дата/Год выпуска: 2013
Страна: Россия
Жанр: документальный, биографический
Продолжительность: 01:06:07
Перевод: Не требуется
Русские субтитры: нет
Режиссер: Борис Караджев, Григорий Рябушев
Телеканал: 24 ДОКОписание: На рубеже тысячелетий Виктор Пелевин стал едва ли не самым модным, популярным и коммерчески успешным писателем России. При этом он не появляется на публике, не дает интервью, носит темные очки и не любит, когда его узнают на улице. Кто же он такой, этот таинственный господин Пелевин? Как случилось, что именно к нему оказался сегодня применим самый почетный для русского писателя титул - "властитель дум"? И как при этом он смог сохранить свое инкогнито? Обо всем этом в фильме размышляют люди, знавшие нашего неуловимого героя в разные периоды его жизни - его одноклассники и педагоги, друзья юности и коллеги - писатели, критики и издатели.
Доп. информация: DVB-S
Номинация на Национальную премию в области неигрового кино и телевидения "Лавровая ветвь" (Россия) 2013 в категории "Лучший кинофильм".

качество: DVB
формат: MKV
Видео: MPEG Video 2, 720x576@768x576 (4:3), 25 fps, ~1938 kbps avg, 0.187 bit/pixel
Аудио: MPEG Audio 2, 2 ch, 48 kHz, ~192.00 kbps avg

MediaInfo

Общее
Уникальный идентификатор : 234668421149381708619448659313881746215 (0xB08B7E7227AD6FBC976E26F52B638B27)
Полное имя : F:\My Torrents 3\[apreder]Pisatel_P(2013)DVB.mkv
Формат : Matroska
Версия формата : Version 2
Размер файла : 1,00 Гбайт
Продолжительность : 1 ч. 6 м.
Режим общего битрейта : Переменный
Общий поток : 2174 Кбит/сек
Дата кодирования : UTC 2015-06-06 19:08:23
Программа кодирования : mkvmerge v7.9.0 ('Birds') 64bit
Библиотека кодирования : libebml v1.3.1 + libmatroska v1.4.2
Видео
Идентификатор : 1
Формат : MPEG Video
Версия формата : Version 2
Профиль формата : Main@Main
Параметр BVOP формата : Да
Параметр матрицы формата : Выборочная
Параметр GOP формата : Variable
Format_Settings_PictureStructure : Frame
Идентификатор кодека : V_MPEG2
Идентификатор кодека/Информация : MPEG 1 or 2 Video
Продолжительность : 1 ч. 6 м.
Вид битрейта : Переменный
Битрейт : 1938 Кбит/сек
Ширина : 720 пикселей
Высота : 576 пикселей
Соотношение сторон : 4:3
Режим частоты кадров : Постоянный
Частота кадров : 25,000 кадров/сек
Стандарт вещания : PAL
Цветовое пространство : YUV
Субдискретизация насыщенности : 4:2:0
Битовая глубина : 8 бит
Тип развёртки : Чересстрочная
Порядок развёртки : Верхнее поле первое
Метод сжатия : С потерями
Бит/(Пиксели*Кадры) : 0.187
Временной код первого кадра : 00:00:00:00
Оригинал временного кода : Group of pictures header
Размер потока : 917 Мбайт (89%)
Default : Да
Forced : Нет
Аудио
Идентификатор : 2
Формат : MPEG Audio
Версия формата : Version 1
Профиль формата : Layer 2
Идентификатор кодека : A_MPEG/L2
Идентификатор кодека/Подсказка : MP2
Продолжительность : 1 ч. 6 м.
Вид битрейта : Постоянный
Битрейт : 192 Кбит/сек
Каналы : 2 канала
Частота : 48,0 КГц
Метод сжатия : С потерями
Размер потока : 90,8 Мбайт (9%)
Язык : Russian
Default : Да
Forced : Нет

Скриншоты

Резервные скриншоты

-[2'312]
[teatrix.ru].t21382.torrent 
Торрент: Зарегистрирован [ 2016-03-20 12:11 ] · 5D93BB7B8EBFF10E8A0953926CB94432167EBFD8

Скачать .torrent

Скачать

10 KB

Статус: проверено
Скачан: 0 раз
Размер: 1 GB
terms.php



Быстрый ответ

Имя:

      
Для отправки сообщений необходимо включить JavaScript
Показать сообщения:    

Текущее время: 07-Дек 19:28

Часовой пояс: UTC + 3


Вы можете начинать темы
Вы можете отвечать на сообщения
Вы не можете редактировать свои сообщения
Вы не можете удалять свои сообщения
Вы не можете голосовать в опросах
Вы не можете прикреплять файлы к сообщениям
Вы можете скачивать файлы