[TR24][OF] Felix Mendelssohn: Violin Concerto, Op. 64 & Pyotr Tchaikovsky/П.И. Чайковский: Violin Concerto, Op. 35 - Arabella Steinbacher, Orchestre de la Suisse Romande, Charles Dutoit - 2015 (Classical)


Статистика раздачи [Обновить пиров]
Размер:  1.14 GB   |    Зарегистрирован:  8 месяцев 18 дней   |    Скачан:  0 раз

Полного источника не было: Никогда

 
   
 
 
 

[Цитировать]

Mendelssohn: Violin Concerto, Op. 64
Tchaikovsky: Violin Concerto, Op. 35
Arabella Steinbacher · Orchestre de la Suisse Romande · Charles Dutoit
- Год издания: 2015
Жанр: Classical
Издатель (лейбл): PentaTone
Продолжительность: 01:08:14
Наличие сканов: Sleeve, Digital Booklet- -
Felix Mendelssohn-Bartholdy (1809-1847)
Violin Concerto in E Minor, Op. 64, MWV O 14
01. I. Allegro molto appassionato - (14:45)
02. II. Andante - (9:10)
03. III. Allegro molto vivace (6:13)
Pyotr Ilyich Tchaikovsky (1840-1893)
Violin Concerto in D Major, Op. 35, TH 59
04. I. Allegro moderato (20:15)
05. II. Canzonetta. Andante (7:02)
06. III. Finale. Allegro vivacissimo (10:49)
-
Контейнер: FLAC (*.flac)
Тип рипа: tracks
Разрядность: 24bit / 96kHz
Количество каналов: 2.0
-О релизе
This release arguably features the two greatest concertos ever written for the violin: performed by one of the most brilliant violinists of her generation, together with one of the finest orchestras, and under the baton of one of the world’s foremost conductors. This recording of Tchaikovsky/Mendelssohn violin concertos bears witness to the eminence of the collaboration between violinist Arabella Steinbacher, conductor Charles Dutoit and PENTATONE’s Orchestra of the Season January June 2015, Orchestre de la Suisse Romande, and the result thereof.
After waiting for a long time to record these concertos with the perfect collaboration, Arabella Steinbacher didn’t waste any chance to shine with heart-felt enthusiasm and bravura in this recording. Her performance produced such a pure, yet fierce sound that it allowed the music to speak in an immediate, translucent way. Recorded in September 2014 in the magnificent Victoria Hall, Geneva, the Orchestre de la Suisse Romande were totally at home with the repertoires and performed with great confidence; they were led by Dutoit, who was vivid, rhythmic and clear in his direction. The vigorous playing results in a vibrant sound that is captured perfectly in HighResAudio.
Arabella Steinbacher, violin
Orchestre de la Suisse Romande
Charles Dutoit, conductor

ОтчётыДинамический диапазон

foobar2000 1.2.2 / Dynamic Range Meter 1.1.1
log date: 2015-06-07 22:01:31
--------------------------------------------------------------------------------
Analyzed: Arabella Steinbacher, Orchestre de la Suisse Romande & Charles Dutoit / Mendelssohn Violin Concerto, Op. 64 - Tchaikovsky Violin Concerto, Op. 35
--------------------------------------------------------------------------------
DR Peak RMS Duration Track
--------------------------------------------------------------------------------
DR14 -2.88 dB -24.20 dB 14:45 ?-Violin Concerto in E Minor, Op. 64, MWV O 14: I. Allegro molto appassionato -
DR17 -5.12 dB -28.38 dB 9:10 ?-Violin Concerto in E Minor, Op. 64, MWV O 14: II. Andante -
DR14 -4.56 dB -24.58 dB 6:13 ?-Violin Concerto in E Minor, Op. 64, MWV O 14: III. Allegro molto vivace
DR16 -0.30 dB -23.30 dB 20:15 ?-Violin Concerto in D Major, Op. 35, TH 59: I. Allegro moderato
DR13 -13.98 dB -32.57 dB 7:02 ?-Violin Concerto in D Major, Op. 35, TH 59: II. Canzonetta. Andante
DR17 -0.66 dB -24.20 dB 10:49 ?-Violin Concerto in D Major, Op. 35, TH 59: III. Finale. Allegro vivacissimo
--------------------------------------------------------------------------------
Number of tracks: 6
Official DR value: DR15
Samplerate: 96000 Hz
Channels: 2
Bits per sample: 24
Bitrate: 2376 kbps
Codec: FLAC
================================================================================

Скриншот спектра частот

Доп. информация

При скачивании, если необходимо, переименуйте папку, в которой будет находиться альбомБольшая просьба к скачавшим поддерживать раздачу! Помогайте другим, ведь вам тоже может понадобиться помощь!Не забываем говорить "Спасибо"!Комментарии приветствуются!
Arabella Steinbacher Hi-Res
[teatrix.ru].t21395.torrent 
Торрент: Зарегистрирован [ 2016-03-20 12:11 ] · 546A83928BDC976487D677FE21D2922D516FFA38

Скачать .torrent

Скачать

12 KB

Статус: проверено
Скачан: 0 раз
Размер: 1.14 GB
terms.php



Быстрый ответ

Имя:

      
Для отправки сообщений необходимо включить JavaScript
Показать сообщения:    

Текущее время: 08-Дек 07:09

Часовой пояс: UTC + 3


Вы можете начинать темы
Вы можете отвечать на сообщения
Вы не можете редактировать свои сообщения
Вы не можете удалять свои сообщения
Вы не можете голосовать в опросах
Вы не можете прикреплять файлы к сообщениям
Вы можете скачивать файлы