[TR24][SM][OF] Witold Lutoslawski & Bela Bartok - Musique funebre - Dennis Russell Davies & Stuttgarter Kammerorchester - 2012 [ECM New Series] (Classical)


Статистика раздачи [Обновить пиров]
Размер:  567 MB   |    Зарегистрирован:  8 месяцев 15 дней   |    Скачан:  1 раз

Полного источника не было: 6 месяцев 9 дней

 
   
 
 
 

[Цитировать]

·
·
·Musique funèbreЖанр: Miscellanious
Носитель: Official Digital Download
Год издания диска: 2012
Издатель(лейбл): © ECM Records GmbH
Продолжительность: 01:00:45
Наличие сканов в содержимом раздачи: artwork
Контейнер: FLAC (*.flac)
Разрядность: 24/44,1
Количество каналов: 2.0
Формат: tracks
Источник: highresaudio.com
Pелизер: WEB (thanks to the original customer)

New Series 2169

Треклист

Witold Lutoslawski (1913–1994)
01 Musique funèbre (1954–1958)13:55
À la mémoire de Béla Bartók
̀Béla Bartók (1881–1945)
02 Romanian Folk Dances BB 76 (1917) 6:26
Divertimento BB 118 (1939)
Dedicated to Paul Sacher and Basler Kammerorchester
03 Allegro non troppo 9:03
04 Molto adagio 9:47
05 Allegro assai 7:31
27 Two- and Three- Part Choruses BB 111 (1935/36)
06 Hussar 1:42
07 Don't leave here! 1:46
08 Loafer's Song 0:45
09 Wandering 2:30
10 Bread-baking 2:20
11 Only tell me 3:22
12 Jeering 1:30

Исполнители


Dennis Russell Davies
Stuttgarter Kammerorchester
Hungarian Radio Children’s Choir

Dynamic Range Meter

foobar2000 1.2.6 / Dynamic Range Meter 1.1.1
log date: 2015-06-08 00:19:50
--------------------------------------------------------------------------------
Analyzed: Hungarian Radio Children's Choir, Stuttgarter Kammerorchester, Dennis Russell Davies / Witold Lutosławski, Béla Bartók: Musique funèbre
--------------------------------------------------------------------------------
DR Peak RMS Duration Track
--------------------------------------------------------------------------------
DR16 -0.28 dB -22.51 dB 13:55 01-Musique funèbre - À la mémoire de Béla Bartók
DR15 -1.14 dB -22.47 dB 6:26 02-Romanian Folk Dances, BB 76
DR13 -0.98 dB -21.32 dB 9:03 03-Divertimento, BB 118: Allegro non troppo
DR15 -4.38 dB -26.93 dB 9:48 04-Divertimento, BB 118: Molto adagio
DR14 -2.12 dB -21.44 dB 7:32 05-Divertimento, BB 118: Allegro assai
DR15 -0.10 dB -18.22 dB 1:43 06-27 Two- and Three-Part Choruses, BB 111: Hussar
DR13 -5.29 dB -25.54 dB 1:47 07-27 Two- and Three-Part Choruses, BB 111: Don't leave here!
DR12 -0.10 dB -16.70 dB 0:46 08-27 Two- and Three-Part Choruses, BB 111: Loafer's Song
DR11 -0.10 dB -21.83 dB 2:31 09-27 Two- and Three-Part Choruses, BB 111: Wandering
DR14 -0.10 dB -18.68 dB 2:21 10-27 Two- and Three-Part Choruses, BB 111: Bread-baking
DR14 -0.55 dB -22.30 dB 3:23 11-27 Two- and Three-Part Choruses, BB 111: Only tell me
DR12 -0.10 dB -16.83 dB 1:30 12-27 Two- and Three-Part Choruses, BB 111: Jeering
--------------------------------------------------------------------------------
Number of tracks: 12
Official DR value: DR14
Samplerate: 44100 Hz
Channels: 2
Bits per sample: 24
Bitrate: 1347 kbps
Codec: FLAC
================================================================================
[teatrix.ru].t21397.torrent 
Торрент: Зарегистрирован [ 2016-03-20 12:11 ] · 57DAFE5DF8AFDBC0FA10E8053BD7ECCF67076E25

Скачать .torrent

Скачать

13 KB

Статус: проверено
Скачан: 1 раз
Размер: 567 MB
terms.php



Быстрый ответ

Имя:

      
Для отправки сообщений необходимо включить JavaScript
Показать сообщения:    

Текущее время: 05-Дек 11:34

Часовой пояс: UTC + 3


Вы можете начинать темы
Вы можете отвечать на сообщения
Вы не можете редактировать свои сообщения
Вы не можете удалять свои сообщения
Вы не можете голосовать в опросах
Вы не можете прикреплять файлы к сообщениям
Вы можете скачивать файлы