(Classical, Double Bass, Organ) Gary Karr Plays J.S. Bach (Preludes and Gallantries, Jesu, Joy of Man's Desiring, Air, etc.) {w/ Harmon Lewis} - 2010 (1985), FLAC (tracks+.cue), lossless


 

[Цитировать]

Gary Karr - Gary Karr Plays Bach
Жанр: Classical, Double Bass, Organ
Страна-производитель диска: Япония
Год издания диска: 2010
Издатель (лейбл): King Records/Firebird (XRCD)
Номер по каталогу: KICC-90801
Аудиокодек: FLAC
Тип рипа: tracks+.cue
Битрейт аудио: lossless
Продолжительность: 46:31
Источник (релизер): mininutag (what)
Наличие сканов в содержимом раздачи: нет
Треклист:
Johann Sebastian Bach (1685-1750)
01. Komm susser Tod, BWV 478 (4:56)
Preludes and Gallantries
02. I. Prelude (2:10)
03. II. Sarabande (2:27)
04. III. Gavotte (1:24)
05. Jesu, Joy of Man's Desiring, BWV 147 (3:38)
06. Air from Orchestral Suite No.3 in D major, BWV 1068 (4:25)
07. Wachet auf, ruft uns die Stimme, BMW 645 (4:25)
08. Sheep May Safely Graze, BWV 208 (6:31)
09. Menuet from Notenbuch der Anna Magdalena Bach, BWV Anh 114 (1:47)
10. Erbarm' dich mein, O Herre Gott, BWV 721 (6:32)
11. Gavotte from Partita No.3, BWV 1006 (2:23)
12. Gloria sei dir gesungen from Kantata "Wachet auf, ruft uns die Stimme", BWV 147 (1:44)
13. Adagio from Toccata C-dur, BWV 564 (4:09)
Исполнители:
Gary Karr - double bass (Amati, 1611)
Harmon Lewis - organ (Flentrop, Holland)
Recorded at Kawanami Memorial Hall, Matsudo on June 9-10, 1985.

Лог создания рипа

Exact Audio Copy V0.99 prebeta 5 from 4. May 2009
EAC extraction logfile from 17. April 2010, 9:52
Gary Karr / Gary Karr Plays Bach
Used drive : PIONEER DVD-RW DVR-112L Adapter: 2 ID: 0
Read mode : Secure
Utilize accurate stream : Yes
Defeat audio cache : Yes
Make use of C2 pointers : No
Read offset correction : 48
Overread into Lead-In and Lead-Out : No
Fill up missing offset samples with silence : Yes
Delete leading and trailing silent blocks : No
Null samples used in CRC calculations : Yes
Used interface : Native Win32 interface for Win NT & 2000
Gap handling : Appended to previous track
Used output format : User Defined Encoder
Selected bitrate : 768 kBit/s
Quality : High
Add ID3 tag : No
Command line compressor : C:\Program Files\Exact Audio Copy\FLAC\FLAC.EXE
Additional command line options : -8 -V -T "ARTIST=%a" -T "TITLE=%t" -T "ALBUM=%g" -T "DATE=%y" -T "TRACKNUMBER=%n" -T "GENRE=%m" -T "COMMENT=%e" %s -o %d
TOC of the extracted CD
Track | Start | Length | Start sector | End sector
---------------------------------------------------------
1 | 0:00.00 | 4:56.00 | 0 | 22199
2 | 4:56.00 | 2:10.00 | 22200 | 31949
3 | 7:06.00 | 2:26.50 | 31950 | 42949
4 | 9:32.50 | 1:23.62 | 42950 | 49236
5 | 10:56.37 | 3:38.25 | 49237 | 65611
6 | 14:34.62 | 4:25.13 | 65612 | 85499
7 | 19:00.00 | 4:24.50 | 85500 | 105349
8 | 23:24.50 | 6:30.55 | 105350 | 134654
9 | 29:55.30 | 1:47.20 | 134655 | 142699
10 | 31:42.50 | 6:31.67 | 142700 | 172091
11 | 38:14.42 | 2:22.63 | 172092 | 182804
12 | 40:37.30 | 1:43.45 | 182805 | 190574
13 | 42:21.00 | 4:09.00 | 190575 | 209249
Track 1
Filename F:\LOSELESS\Gary Karr - Gary Karr Plays Bach\01 - Komm susser Tod, BWV.478.wav
Pre-gap length 0:00:02.00
Peak level 84.8 %
Track quality 100.0 %
Test CRC 8E0722B0
Copy CRC 8E0722B0
Copy OK
Track 2
Filename F:\LOSELESS\Gary Karr - Gary Karr Plays Bach\02 - Pureludes and Gallantries I . Prelude.wav
Pre-gap length 0:00:03.65
Peak level 69.9 %
Track quality 100.0 %
Test CRC 397FC7BF
Copy CRC 397FC7BF
Copy OK
Track 3
Filename F:\LOSELESS\Gary Karr - Gary Karr Plays Bach\03 - Pureludes and Gallantries II . Sarabande.wav
Pre-gap length 0:00:03.82
Peak level 64.8 %
Track quality 100.0 %
Test CRC FA2E38D0
Copy CRC FA2E38D0
Copy OK
Track 4
Filename F:\LOSELESS\Gary Karr - Gary Karr Plays Bach\04 - Pureludes and Gallantries III . Gavotte.wav
Pre-gap length 0:00:03.98
Peak level 59.3 %
Track quality 100.0 %
Test CRC CA24B58A
Copy CRC CA24B58A
Copy OK
Track 5
Filename F:\LOSELESS\Gary Karr - Gary Karr Plays Bach\05 - Jesu,Joy of man's desiring, BWV.147.wav
Pre-gap length 0:00:04.85
Peak level 74.9 %
Track quality 100.0 %
Test CRC C8112DE0
Copy CRC C8112DE0
Copy OK
Track 6
Filename F:\LOSELESS\Gary Karr - Gary Karr Plays Bach\06 - air from orchestral suite No,3 in D major BWV.1068.wav
Pre-gap length 0:00:03.98
Peak level 64.6 %
Track quality 100.0 %
Test CRC A17BEEEA
Copy CRC A17BEEEA
Copy OK
Track 7
Filename F:\LOSELESS\Gary Karr - Gary Karr Plays Bach\07 - Wachet auf, ruft uns die Stimme BMW.645.wav
Pre-gap length 0:00:03.38
Peak level 65.0 %
Track quality 99.9 %
Test CRC BC0FD63F
Copy CRC BC0FD63F
Copy OK
Track 8
Filename F:\LOSELESS\Gary Karr - Gary Karr Plays Bach\08 - Sheep may safely graze, BWV.208.wav
Pre-gap length 0:00:04.16
Peak level 61.3 %
Track quality 100.0 %
Test CRC B93D7E00
Copy CRC B93D7E00
Copy OK
Track 9
Filename F:\LOSELESS\Gary Karr - Gary Karr Plays Bach\09 - Menuett from Notenbuh der Anna Magdalena Bach, BWV.Anh.114.wav
Pre-gap length 0:00:03.78
Peak level 66.8 %
Track quality 99.9 %
Test CRC 60017E64
Copy CRC 60017E64
Copy OK
Track 10
Filename F:\LOSELESS\Gary Karr - Gary Karr Plays Bach\10 - Erbarm' dich mein, O Herre Gott',BWV.721.wav
Pre-gap length 0:00:04.98
Peak level 49.7 %
Track quality 100.0 %
Test CRC B3A54254
Copy CRC B3A54254
Copy OK
Track 11
Filename F:\LOSELESS\Gary Karr - Gary Karr Plays Bach\11 - Gavotte from partita No.3 BWV.1006.wav
Pre-gap length 0:00:03.65
Peak level 69.9 %
Track quality 100.0 %
Test CRC C7065AB9
Copy CRC C7065AB9
Copy OK
Track 12
Filename F:\LOSELESS\Gary Karr - Gary Karr Plays Bach\12 - Gloria sei dir gesungen, BWV.147.wav
Pre-gap length 0:00:04.29
Peak level 70.5 %
Track quality 99.8 %
Test CRC 49EDEC4F
Copy CRC 49EDEC4F
Copy OK
Track 13
Filename F:\LOSELESS\Gary Karr - Gary Karr Plays Bach\13 - Adagio from Toccata C-dur,BWV.546.wav
Pre-gap length 0:00:03.05
Peak level 64.4 %
Track quality 100.0 %
Test CRC C622A245
Copy CRC C622A245
Copy OK
No errors occurred
End of status report

Содержание индексной карты (.CUE)

REM GENRE Classical
REM DATE 1985
REM DISCID C70AE60D
REM COMMENT "ExactAudioCopy v0.99pb5"
PERFORMER "Gary Karr"
TITLE "Gary Karr Plays Bach"
FILE "01 - Komm susser Tod, BWV 478.wav" WAVE
TRACK 01 AUDIO
TITLE "Komm susser Tod, BWV 478"
PERFORMER "Gary Karr"
INDEX 01 00:00:00
TRACK 02 AUDIO
TITLE "Preludes and Gallantries: I. Prelude"
PERFORMER "Gary Karr"
INDEX 00 04:52:26
FILE "02 - Preludes and Gallantries- I. Prelude.wav" WAVE
INDEX 01 00:00:00
TRACK 03 AUDIO
TITLE "Preludes and Gallantries: II. Sarabande"
PERFORMER "Gary Karr"
INDEX 00 02:06:13
FILE "03 - Preludes and Gallantries- II. Sarabande.wav" WAVE
INDEX 01 00:00:00
TRACK 04 AUDIO
TITLE "Preludes and Gallantries: III. Gavotte"
PERFORMER "Gary Karr"
INDEX 00 02:22:51
FILE "04 - Preludes and Gallantries- III. Gavotte.wav" WAVE
INDEX 01 00:00:00
TRACK 05 AUDIO
TITLE "Jesu, Joy of Man's Desiring, BWV 147"
PERFORMER "Gary Karr"
INDEX 00 01:18:73
FILE "05 - Jesu, Joy of Man's Desiring, BWV 147.wav" WAVE
INDEX 01 00:00:00
TRACK 06 AUDIO
TITLE "Air from Orchestral Suite No.3 in D major, BWV 1068"
PERFORMER "Gary Karr"
INDEX 00 03:34:26
FILE "06 - Air from Orchestral Suite No.3 in D major, BWV 1068.wav" WAVE
INDEX 01 00:00:00
TRACK 07 AUDIO
TITLE "Wachet auf, ruft uns die Stimme, BMW 645"
PERFORMER "Gary Karr"
INDEX 00 04:21:59
FILE "07 - Wachet auf, ruft uns die Stimme, BMW 645.wav" WAVE
INDEX 01 00:00:00
TRACK 08 AUDIO
TITLE "Sheep May Safely Graze, BWV 208"
PERFORMER "Gary Karr"
INDEX 00 04:20:38
FILE "08 - Sheep May Safely Graze, BWV 208.wav" WAVE
INDEX 01 00:00:00
TRACK 09 AUDIO
TITLE "Menuet from Notenbuch der Anna Magdalena Bach, BWV Anh 114"
PERFORMER "Gary Karr"
INDEX 00 06:26:71
FILE "09 - Menuet from Notenbuch der Anna Magdalena Bach, BWV Anh 114.wav" WAVE
INDEX 01 00:00:00
TRACK 10 AUDIO
TITLE "Erbarm' dich mein, O Herre Gott, BWV 721"
PERFORMER "Gary Karr"
INDEX 00 01:42:21
FILE "10 - Erbarm' dich mein, O Herre Gott, BWV 721.wav" WAVE
INDEX 01 00:00:00
TRACK 11 AUDIO
TITLE "Gavotte from Partita No.3, BWV 1006"
PERFORMER "Gary Karr"
INDEX 00 06:28:18
FILE "11 - Gavotte from Partita No.3, BWV 1006.wav" WAVE
INDEX 01 00:00:00
TRACK 12 AUDIO
TITLE "Gloria sei dir gesungen from Kantata 'Wachet auf, ruft uns die Stimme', BWV 147"
PERFORMER "Gary Karr"
INDEX 00 02:18:41
FILE "12 - Gloria sei dir gesungen from Kantata 'Wachet auf, ruft uns die Stimme', BWV 147.wav" WAVE
INDEX 01 00:00:00
TRACK 13 AUDIO
TITLE "Adagio from Toccata C-dur, BWV 564"
PERFORMER "Gary Karr"
INDEX 00 01:40:41
FILE "13 - Adagio from Toccata C-dur, BWV 564.wav" WAVE
INDEX 01 00:00:00

Отчет CUETools

[CUETools log; Date: 08.06.2015 13:07:38; Version: 2.1.5]
[CTDB TOCID: 2erMhDQqMVeKLVO_FCMYrgtPz9w-] found.
Track | CTDB Status
1 | (3/5) Accurately ripped, or (2/5) differs in 1 samples @00:01:10
2 | (5/5) Accurately ripped
3 | (5/5) Accurately ripped
4 | (5/5) Accurately ripped
5 | (5/5) Accurately ripped
6 | (5/5) Accurately ripped
7 | (3/5) Accurately ripped, or (2/5) differs in 1 samples @04:18:43
8 | (5/5) Accurately ripped
9 | (5/5) Accurately ripped
10 | (5/5) Accurately ripped
11 | (5/5) Accurately ripped
12 | (5/5) Accurately ripped
13 | (3/5) Accurately ripped, or (2/5) differs in 1 samples @04:06:10
[AccurateRip ID: 0015e4fc-00dda536-c70ae60d] found.
Track [ CRC | V2 ] Status
01 [26166710|eb922825] (0+0/2) No match
02 [88c594a3|f4141cee] (0+0/2) No match
03 [01eb35cf|b00a157d] (0+0/2) No match
04 [1c88a610|422c6c46] (0+0/2) No match
05 [0046d18e|1e34a1a4] (0+0/2) No match
06 [b5ca9fdb|3b4cf61a] (0+0/2) No match
07 [59e544cb|fbf23888] (0+0/2) No match
08 [9a551984|8ee828b7] (0+0/2) No match
09 [7b0801f5|6916c17a] (0+0/2) No match
10 [92aa38d3|58fa38f1] (0+0/2) No match
11 [1b24c298|ab056312] (0+0/2) No match
12 [5a0aa21d|f38c1888] (0+0/2) No match
13 [973c03b8|61645fcf] (0+0/2) No match
Offsetted by 48:
01 [5dc3fee0] (2/2) Accurately ripped
02 [728ca473] (2/2) Accurately ripped
03 [2f1e31cf] (2/2) Accurately ripped
04 [f5d0a430] (2/2) Accurately ripped
05 [19d7f78e] (2/2) Accurately ripped
06 [f0ec91cb] (2/2) Accurately ripped
07 [53b16fcb] (2/2) Accurately ripped
08 [fb162104] (2/2) Accurately ripped
09 [96f56985] (2/2) Accurately ripped
10 [8c1521d3] (2/2) Accurately ripped
11 [82c5f6c8] (2/2) Accurately ripped
12 [0cbbef9d] (2/2) Accurately ripped
13 [90aed9c8] (2/2) Accurately ripped
Track Peak [ CRC32 ] [W/O NULL] [ LOG ]
-- 84,8 [B52A44D2] [990B023F]
01 84,8 [8E0722B0] [58C4FB47] CRC32
02 69,9 [397FC7BF] [019FADD5] CRC32
03 64,8 [FA2E38D0] [550BE2DE] CRC32
04 59,3 [CA24B58A] [8321B2BB] CRC32
05 74,9 [C8112DE0] [B4D75C45] CRC32
06 64,6 [A17BEEEA] [B524489C] CRC32
07 65,0 [BC0FD63F] [7D2FC596] CRC32
08 61,3 [B93D7E00] [1C26D2D5] CRC32
09 66,8 [60017E64] [9E005E44] CRC32
10 49,7 [B3A54254] [CA43B0FB] CRC32
11 69,9 [C7065AB9] [1ABF9657] CRC32
12 70,5 [49EDEC4F] [7916E931] CRC32
13 64,4 [C622A245] [BABC7C20] CRC32

Об альбоме (сборнике)

The combination of Karr's intense passion for Bach's music, which is played on his 1611 Amati and the sound of the organ, which was Bach's favorite instrument, makes this a very powerful musical statement.



Показать сообщения:    

Текущее время: 22-Янв 04:40

Часовой пояс: UTC + 3


Вы не можете начинать темы
Вы не можете отвечать на сообщения
Вы не можете редактировать свои сообщения
Вы не можете удалять свои сообщения
Вы не можете голосовать в опросах
Вы не можете прикреплять файлы к сообщениям
Вы не можете скачивать файлы