(Classical, Double Bass, Organ) Gary Karr, Harmon Lewis - Adagio d'Albinoni (Beethoven, Franck, Handel, J.S. Bach, Bruch, Bloch) - 2005 (1982) {24 Kt. Gold Edition GCD 8003}, FLAC (tracks+.cue), lossless


 

[Цитировать]

Gary Karr - Adagio d'Albinoni
Жанр: Classical, Double Bass, Organ
Страна-производитель диска: США
Год издания диска: 2005
Издатель (лейбл): Cisco
Номер по каталогу: GCD 8003
Аудиокодек: FLAC
Тип рипа: tracks+.cue
Битрейт аудио: lossless
Продолжительность: 1:00:40
Источник (релизер): chingo66 (what)
Наличие сканов в содержимом раздачи: сетевые
Треклист:
01. Tomaso Albinoni, Remo Giazotto: Adagio in G minor (8:56)
02. Ludwig van Beethoven: Sonatina (4:49)
03. Cesar Franck: Piece No.V (6:00)
George Frideric Handel: Sonata No.9
04. I. Largo (3:43)
05. II. Alla breve (2:29)
06. III. Andante (4:08)
07. IV. Vivace (2:02)
08. Johann Sebastian Bach, Charles Gounod: Ave Maria (4:27)
09. Max Bruch: Kol Nidrei (14:54)
10. Ernest Bloch: Player from "Sketches from Jewish Life" (6:12)
11. Negro Spiritual: Deep River (3:00)
Исполнители:
Gary Karr - double bass (1611, Amati)
Harmon Lewis - organ (Kuhn, Switzerland)
Recorded at the Vega Hall, Takarazuka on September 22, 1982.

Лог создания рипа

X Lossless Decoder version 20100323 (116.7)
XLD extraction logfile from 2010-03-28 23:12:41 -0400
Gary Karr , Harmonlewis / Adagio d'Albinoni
Used drive : OPTIARC DVD RW AD-5670S (revision 2AHH)
Use cdparanoia mode : YES (CDParanoia III 10.2 engine)
Disable audio cache : OK for the drive with cache less than 2750KB
Make use of C2 pointers : NO
Read offset correction : 48
Max retry count : 100
TOC of the extracted CD
Track | Start | Length | Start sector | End sector
---------------------------------------------------------
1 | 00:00:00 | 08:56:10 | 0 | 40209
2 | 08:56:10 | 04:49:25 | 40210 | 61909
3 | 13:45:35 | 06:00:12 | 61910 | 88921
4 | 19:45:47 | 03:43:00 | 88922 | 105646
5 | 23:28:47 | 02:29:35 | 105647 | 116856
6 | 25:58:07 | 04:08:23 | 116857 | 135479
7 | 30:06:30 | 02:02:17 | 135480 | 144646
8 | 32:08:47 | 04:27:13 | 144647 | 164684
9 | 36:35:60 | 14:53:60 | 164685 | 231719
10 | 51:29:45 | 06:12:17 | 231720 | 259636
11 | 57:41:62 | 03:00:33 | 259637 | 273169
List of alternate offset correction values
# | Absolute | Relative | Confidence
------------------------------------------
1 | 146 | 98 | 2
Track 01
Filename : /Users/g/Desktop/Gary Karr - Adagio d'Albinoni (2005) [Gold GCD 8003]/01 - Albinoni-Giazotto, Adagio In G Minor.flac
Pre-gap length : 00:02:00
CRC32 hash (test run) : 7B539075
CRC32 hash : 7B539075
CRC32 hash (skip zero) : A4EC579C
AccurateRip signature : A6F1C235
->Accurately ripped! (confidence 3)
Statistics
Read error : 0
Skipped (treated as error) : 0
Edge jitter error (maybe fixed) : 0
Atom jitter error (maybe fixed) : 0
Drift error (maybe fixed) : 0
Dropped bytes error (maybe fixed) : 0
Duplicated bytes error (maybe fixed) : 0
Inconsistency in error sectors : 0
Track 02
Filename : /Users/g/Desktop/Gary Karr - Adagio d'Albinoni (2005) [Gold GCD 8003]/02 - L.V. Beethoven, Sonatina.flac
Pre-gap length : 00:05:33
CRC32 hash (test run) : 91739CEC
CRC32 hash : 91739CEC
CRC32 hash (skip zero) : C0F33979
AccurateRip signature : 115593AB
->Accurately ripped! (confidence 3)
Statistics
Read error : 0
Skipped (treated as error) : 0
Edge jitter error (maybe fixed) : 0
Atom jitter error (maybe fixed) : 0
Drift error (maybe fixed) : 0
Dropped bytes error (maybe fixed) : 0
Duplicated bytes error (maybe fixed) : 0
Inconsistency in error sectors : 0
Track 03
Filename : /Users/g/Desktop/Gary Karr - Adagio d'Albinoni (2005) [Gold GCD 8003]/03 - Cesar Franck, Piece No. V.flac
Pre-gap length : 00:03:20
CRC32 hash (test run) : BF5D7AE9
CRC32 hash : BF5D7AE9
CRC32 hash (skip zero) : C9FDBE26
AccurateRip signature : 56A2F8BA
->Accurately ripped! (confidence 3)
Statistics
Read error : 0
Skipped (treated as error) : 0
Edge jitter error (maybe fixed) : 0
Atom jitter error (maybe fixed) : 0
Drift error (maybe fixed) : 0
Dropped bytes error (maybe fixed) : 0
Duplicated bytes error (maybe fixed) : 0
Inconsistency in error sectors : 0
Track 04
Filename : /Users/g/Desktop/Gary Karr - Adagio d'Albinoni (2005) [Gold GCD 8003]/04 - Handel, Sonata No. 9 - 1st Mov., Largo.flac
Pre-gap length : 00:03:22
CRC32 hash (test run) : D7A577C5
CRC32 hash : D7A577C5
CRC32 hash (skip zero) : DDC789A5
AccurateRip signature : 9F20B7E9
->Accurately ripped! (confidence 3)
Statistics
Read error : 0
Skipped (treated as error) : 0
Edge jitter error (maybe fixed) : 0
Atom jitter error (maybe fixed) : 0
Drift error (maybe fixed) : 0
Dropped bytes error (maybe fixed) : 0
Duplicated bytes error (maybe fixed) : 0
Inconsistency in error sectors : 0
Track 05
Filename : /Users/g/Desktop/Gary Karr - Adagio d'Albinoni (2005) [Gold GCD 8003]/05 - Handel, Sonata No. 9 - 2nd Mov., Alla Breve.flac
Pre-gap length : 00:03:37
CRC32 hash (test run) : 2616E486
CRC32 hash : 2616E486
CRC32 hash (skip zero) : 3E676BD6
AccurateRip signature : 06B686AA
->Accurately ripped! (confidence 3)
Statistics
Read error : 0
Skipped (treated as error) : 0
Edge jitter error (maybe fixed) : 0
Atom jitter error (maybe fixed) : 0
Drift error (maybe fixed) : 0
Dropped bytes error (maybe fixed) : 0
Duplicated bytes error (maybe fixed) : 0
Inconsistency in error sectors : 0
Track 06
Filename : /Users/g/Desktop/Gary Karr - Adagio d'Albinoni (2005) [Gold GCD 8003]/06 - Handel, Sonata No. 9 - 3rd Mov., Andante.flac
Pre-gap length : 00:03:45
CRC32 hash (test run) : ACAEB75C
CRC32 hash : ACAEB75C
CRC32 hash (skip zero) : C4C52B5F
AccurateRip signature : 6B4384B4
->Accurately ripped! (confidence 3)
Statistics
Read error : 0
Skipped (treated as error) : 0
Edge jitter error (maybe fixed) : 0
Atom jitter error (maybe fixed) : 0
Drift error (maybe fixed) : 0
Dropped bytes error (maybe fixed) : 0
Duplicated bytes error (maybe fixed) : 0
Inconsistency in error sectors : 0
Track 07
Filename : /Users/g/Desktop/Gary Karr - Adagio d'Albinoni (2005) [Gold GCD 8003]/07 - Handel, Sonata No. 9 - 4th Mov., Vivace.flac
Pre-gap length : 00:03:08
CRC32 hash (test run) : 0FC21F64
CRC32 hash : 0FC21F64
CRC32 hash (skip zero) : 03115EA1
AccurateRip signature : FBBBBDF3
->Accurately ripped! (confidence 3)
Statistics
Read error : 0
Skipped (treated as error) : 0
Edge jitter error (maybe fixed) : 0
Atom jitter error (maybe fixed) : 0
Drift error (maybe fixed) : 0
Dropped bytes error (maybe fixed) : 0
Duplicated bytes error (maybe fixed) : 0
Inconsistency in error sectors : 0
Track 08
Filename : /Users/g/Desktop/Gary Karr - Adagio d'Albinoni (2005) [Gold GCD 8003]/08 - J.S. Bach-C. Gounod, Ave Maria.flac
Pre-gap length : 00:04:42
CRC32 hash (test run) : 02EED575
CRC32 hash : 02EED575
CRC32 hash (skip zero) : 6799A0E2
AccurateRip signature : 2E2B77A0
->Accurately ripped! (confidence 3)
Statistics
Read error : 0
Skipped (treated as error) : 0
Edge jitter error (maybe fixed) : 0
Atom jitter error (maybe fixed) : 0
Drift error (maybe fixed) : 0
Dropped bytes error (maybe fixed) : 0
Duplicated bytes error (maybe fixed) : 0
Inconsistency in error sectors : 0
Track 09
Filename : /Users/g/Desktop/Gary Karr - Adagio d'Albinoni (2005) [Gold GCD 8003]/09 - Bruch, Kol Nidrei.flac
Pre-gap length : 00:03:65
CRC32 hash (test run) : 9EB4EFEC
CRC32 hash : 9EB4EFEC
CRC32 hash (skip zero) : 0F3CBD44
AccurateRip signature : 94316102
->Accurately ripped! (confidence 3)
Statistics
Read error : 0
Skipped (treated as error) : 0
Edge jitter error (maybe fixed) : 0
Atom jitter error (maybe fixed) : 0
Drift error (maybe fixed) : 0
Dropped bytes error (maybe fixed) : 0
Duplicated bytes error (maybe fixed) : 0
Inconsistency in error sectors : 0
Track 10
Filename : /Users/g/Desktop/Gary Karr - Adagio d'Albinoni (2005) [Gold GCD 8003]/10 - Bloch, Player From Sketches From Jewish Life.flac
Pre-gap length : 00:04:60
CRC32 hash (test run) : 4A8BAEDC
CRC32 hash : 4A8BAEDC
CRC32 hash (skip zero) : 8890B882
AccurateRip signature : 5A755474
->Accurately ripped! (confidence 3)
Statistics
Read error : 0
Skipped (treated as error) : 0
Edge jitter error (maybe fixed) : 0
Atom jitter error (maybe fixed) : 0
Drift error (maybe fixed) : 0
Dropped bytes error (maybe fixed) : 0
Duplicated bytes error (maybe fixed) : 0
Inconsistency in error sectors : 0
Track 11
Filename : /Users/g/Desktop/Gary Karr - Adagio d'Albinoni (2005) [Gold GCD 8003]/11 - Negro Spiritual, Deep River.flac
Pre-gap length : 00:03:10
CRC32 hash (test run) : 4D4DC785
CRC32 hash : 4D4DC785
CRC32 hash (skip zero) : 7F04D8E5
AccurateRip signature : 371D0DDE
->Accurately ripped! (confidence 3)
Statistics
Read error : 0
Skipped (treated as error) : 0
Edge jitter error (maybe fixed) : 0
Atom jitter error (maybe fixed) : 0
Drift error (maybe fixed) : 0
Dropped bytes error (maybe fixed) : 0
Duplicated bytes error (maybe fixed) : 0
Inconsistency in error sectors : 0
No errors occurred
End of status report

Содержание индексной карты (.CUE)

TITLE "Adagio d'Albinoni"
PERFORMER "Gary Karr"
REM GENRE "Classical"
REM DATE "1982"
FILE "01 - Albinoni, Giazotto- Adagio in G minor.wav" WAVE
TRACK 01 AUDIO
TITLE "Albinoni, Giazotto: Adagio in G minor"
INDEX 01 00:00:00
TRACK 02 AUDIO
TITLE "Beethoven: Sonatina"
INDEX 00 08:50:52
FILE "02 - Beethoven- Sonatina.wav" WAVE
INDEX 01 00:00:00
TRACK 03 AUDIO
TITLE "Franck: Piece No.V"
INDEX 00 04:46:05
FILE "03 - Franck- Piece No.V.wav" WAVE
INDEX 01 00:00:00
TRACK 04 AUDIO
TITLE "Handel: Sonata No.9: I. Largo"
INDEX 00 05:56:65
FILE "04 - Handel- Sonata No.9- I. Largo.wav" WAVE
INDEX 01 00:00:00
TRACK 05 AUDIO
TITLE "Handel: Sonata No.9: II. Alla breve"
INDEX 00 03:39:38
FILE "05 - Handel- Sonata No.9- II. Alla breve.wav" WAVE
INDEX 01 00:00:00
TRACK 06 AUDIO
TITLE "Handel: Sonata No.9: III. Andante"
INDEX 00 02:25:65
FILE "06 - Handel- Sonata No.9- III. Andante.wav" WAVE
INDEX 01 00:00:00
TRACK 07 AUDIO
TITLE "Handel: Sonata No.9: IV. Vivace"
INDEX 00 04:05:15
FILE "07 - Handel- Sonata No.9- IV. Vivace.wav" WAVE
INDEX 01 00:00:00
TRACK 08 AUDIO
TITLE "J.S. Bach, Gounod: Ave Maria"
INDEX 00 01:57:50
FILE "08 - J.S. Bach, Gounod- Ave Maria.wav" WAVE
INDEX 01 00:00:00
TRACK 09 AUDIO
TITLE "Bruch: Kol Nidrei"
INDEX 00 04:23:23
FILE "09 - Bruch- Kol Nidrei.wav" WAVE
INDEX 01 00:00:00
TRACK 10 AUDIO
TITLE "Bloch: Player from 'Sketches from Jewish Life'"
INDEX 00 14:49:00
FILE "10 - Bloch- Player from 'Sketches from Jewish Life'.wav" WAVE
INDEX 01 00:00:00
TRACK 11 AUDIO
TITLE "Negro Spiritual: Deep River"
INDEX 00 06:09:07
FILE "11 - Negro Spiritual- Deep River.wav" WAVE
INDEX 01 00:00:00

Отчет CUETools

[CUETools log; Date: 08.06.2015 14:09:20; Version: 2.1.5]
[CTDB TOCID: CA39iAAhL0YpLNmrgHmC4IVz1qc-] found.
Track | CTDB Status
1 | (14/14) Accurately ripped
2 | (14/14) Accurately ripped
3 | (14/14) Accurately ripped
4 | (14/14) Accurately ripped
5 | (14/14) Accurately ripped
6 | (14/14) Accurately ripped
7 | (14/14) Accurately ripped
8 | (14/14) Accurately ripped
9 | (14/14) Accurately ripped
10 | (14/14) Accurately ripped
11 | (14/14) Accurately ripped
[AccurateRip ID: 0018c365-00d3f274-940e3a0b] found.
Track [ CRC | V2 ] Status
01 [a6f1c235|a503fb6c] (07+07/26) Accurately ripped
02 [115593ab|45779385] (07+07/27) Accurately ripped
03 [56a2f8ba|370ee7b4] (07+07/26) Accurately ripped
04 [9f20b7e9|ab76e0ad] (07+07/27) Accurately ripped
05 [06b686aa|2754968e] (07+07/27) Accurately ripped
06 [6b4384b4|c0b3e5bd] (07+07/27) Accurately ripped
07 [fbbbbdf3|065d83e7] (07+07/27) Accurately ripped
08 [2e2b77a0|26a4365f] (07+07/27) Accurately ripped
09 [94316102|85a013ae] (07+07/27) Accurately ripped
10 [5a755474|ff997c62] (07+07/27) Accurately ripped
11 [371d0dde|740590fa] (07+07/27) Accurately ripped
Offsetted by 98:
01 [65dae7d3] (02/26) Accurately ripped
02 [e2ee00cf] (03/27) Accurately ripped
03 [8a622376] (02/26) Accurately ripped
04 [0b768449] (03/27) Accurately ripped
05 [b6682c70] (03/27) Accurately ripped
06 [d10f2182] (03/27) Accurately ripped
07 [cd5e9535] (03/27) Accurately ripped
08 [e730f4f0] (03/27) Accurately ripped
09 [5e19fd02] (03/27) Accurately ripped
10 [1a4f4ea2] (03/27) Accurately ripped
11 [98bbc956] (03/27) Accurately ripped
Offsetted by 336:
01 [a335b0e5] (02/26) Accurately ripped
02 [96cde54b] (02/27) Accurately ripped
03 [bee9421a] (02/26) Accurately ripped
04 [129006e9] (02/27) Accurately ripped
05 [85a9e39a] (02/27) Accurately ripped
06 [c846c2e4] (02/27) Accurately ripped
07 [38333243] (02/27) Accurately ripped
08 [5f62dc20] (02/27) Accurately ripped
09 [6d05c102] (02/27) Accurately ripped
10 [a31789a4] (02/27) Accurately ripped
11 [85cf909e] (02/27) Accurately ripped
Offsetted by 562:
01 [3c205603] (00/26) No match (V2 was not tested)
02 [fcc4eb6f] (00/27) No match (V2 was not tested)
03 [94494bd6] (00/26) No match (V2 was not tested)
04 [7a1c6b49] (00/27) No match (V2 was not tested)
05 [34f532e0] (00/27) No match (V2 was not tested)
06 [b3076b32] (00/27) No match (V2 was not tested)
07 [45714205] (00/27) No match (V2 was not tested)
08 [681bed70] (00/27) No match (V2 was not tested)
09 [58c55d02] (00/27) No match (V2 was not tested)
10 [04b56752] (00/27) No match (V2 was not tested)
11 [8b818a16] (00/27) No match (V2 was not tested)
Track Peak [ CRC32 ] [W/O NULL]
-- 99,2 [914F5774] [3429A509]
01 99,2 [7B539075] [A4EC579C]
02 67,0 [91739CEC] [C0F33979]
03 52,2 [BF5D7AE9] [C9FDBE26]
04 53,7 [D7A577C5] [DDC789A5]
05 62,8 [2616E486] [3E676BD6]
06 53,6 [ACAEB75C] [C4C52B5F]
07 55,4 [0FC21F64] [03115EA1]
08 46,1 [02EED575] [6799A0E2]
09 85,5 [9EB4EFEC] [0F3CBD44]
10 71,9 [4A8BAEDC] [8890B882]
11 70,9 [4D4DC785] [7F04D8E5]



Показать сообщения:    

Текущее время: 09-Дек 08:53

Часовой пояс: UTC + 3


Вы не можете начинать темы
Вы не можете отвечать на сообщения
Вы не можете редактировать свои сообщения
Вы не можете удалять свои сообщения
Вы не можете голосовать в опросах
Вы не можете прикреплять файлы к сообщениям
Вы не можете скачивать файлы