(Classical, Double Bass, Organ) Gary Karr, Harmon Lewis - Adagio d'Albinoni (Beethoven, Franck, Handel, J.S. Bach) - 2012 Japan Edition (1982), FLAC (tracks+.cue), lossless


 

[Цитировать]

Gary Karr - Adagio d'Albinoni
Жанр: Classical, Double Bass, Organ
Страна-производитель диска: Япония
Год издания диска: 2012
Издатель (лейбл): King Records/Firebird (XRCD)
Номер по каталогу: KICC-91023
Аудиокодек: FLAC
Тип рипа: tracks+.cue
Битрейт аудио: lossless
Продолжительность: 36:40
Источник (релизер): Defiler99 (what)
Наличие сканов в содержимом раздачи: front
Треклист:
01. Tomaso Albinoni, Remo Giazotto: Adagio in G minor (8:59)
02. Ludwig van Beethoven: Sonatina (4:51)
03. Cesar Franck: Piece No.V (6:02)
George Frideric Handel: Sonata No.9
04. I. Largo (3:43)
05. II. Alla breve (2:29)
06. III. Andante (4:09)
07. IV. Vivace (2:01)
08. Johann Sebastian Bach, Charles Gounod: Ave Maria (4:26)
Исполнители:
Gary Karr - double bass (1611, Amati)
Harmon Lewis - organ (Kuhn, Switzerland)
Recorded at the Vega Hall, Takarazuka on September 22, 1982.

Лог создания рипа

X Lossless Decoder version 20121027 (142.1)
XLD extraction logfile from 2012-12-12 16:39:02 -0800
Gary Karr / Adagio d'Albinoni
Used drive : PIONEER DVD-RW DVR-219L (revision 1.01)
Ripper mode : XLD Secure Ripper
Disable audio cache : OK for the drive with a cache less than 1375KiB
Make use of C2 pointers : NO
Read offset correction : 6
Max retry count : 50
Gap status : Analyzed, Appended
TOC of the extracted CD
Track | Start | Length | Start sector | End sector
---------------------------------------------------------
1 | 00:00:00 | 08:59:25 | 0 | 40449
2 | 08:59:25 | 04:50:62 | 40450 | 62261
3 | 13:50:12 | 06:02:13 | 62262 | 89424
4 | 19:52:25 | 03:43:37 | 89425 | 106186
5 | 23:35:62 | 02:29:30 | 106187 | 117391
6 | 26:05:17 | 04:08:65 | 117392 | 136056
7 | 30:14:07 | 02:00:68 | 136057 | 145124
8 | 32:15:00 | 04:26:00 | 145125 | 165074
AccurateRip Summary (DiscID: 000d2715-00534f24-6c089908)
Track 01 : OK (v1, confidence 4/4)
Track 02 : OK (v1, confidence 4/4)
Track 03 : OK (v1, confidence 4/4)
Track 04 : OK (v1, confidence 4/4)
Track 05 : OK (v1, confidence 4/4)
Track 06 : OK (v1, confidence 4/4)
Track 07 : OK (v1, confidence 4/4)
Track 08 : OK (v1, confidence 4/4)
->All tracks accurately ripped.
All Tracks
Album gain : -1.91 dB
Peak : 0.964966
Statistics
Read error : 0
Jitter error (maybe fixed) : 0
Retry sector count : 0
Damaged sector count : 0
Track 01
Filename : /Media/Music/seed/Gary Karr - Adagio d'Albinoni (1982) [FLAC]/01 - Adagio in G Minor.flac
Pre-gap length : 00:02:00
Track gain : -5.25 dB
Peak : 0.964966
CRC32 hash (test run) : E7641E18
CRC32 hash : E7641E18
CRC32 hash (skip zero) : 4ACEFEE9
AccurateRip v1 signature : 3C85110B
AccurateRip v2 signature : 3399B774
->Accurately ripped (v1, confidence 4/4)
Statistics
Read error : 0
Jitter error (maybe fixed) : 0
Retry sector count : 0
Damaged sector count : 0
Track 02
Filename : /Media/Music/seed/Gary Karr - Adagio d'Albinoni (1982) [FLAC]/02 - Sonatina.flac
Pre-gap length : 00:07:17
Track gain : 0.57 dB
Peak : 0.824585
CRC32 hash (test run) : 6833DB9F
CRC32 hash : 6833DB9F
CRC32 hash (skip zero) : C60E31C7
AccurateRip v1 signature : 04B15E35
AccurateRip v2 signature : 148309E2
->Accurately ripped (v1, confidence 4/4)
Statistics
Read error : 0
Jitter error (maybe fixed) : 0
Retry sector count : 0
Damaged sector count : 0
Track 03
Filename : /Media/Music/seed/Gary Karr - Adagio d'Albinoni (1982) [FLAC]/03 - Piece V.flac
Pre-gap length : 00:03:61
Track gain : 1.23 dB
Peak : 0.625763
CRC32 hash (test run) : 81323E6A
CRC32 hash : 81323E6A
CRC32 hash (skip zero) : EB78E460
AccurateRip v1 signature : 518E2AD8
AccurateRip v2 signature : 75227133
->Accurately ripped (v1, confidence 4/4)
Statistics
Read error : 0
Jitter error (maybe fixed) : 0
Retry sector count : 0
Damaged sector count : 0
Track 04
Filename : /Media/Music/seed/Gary Karr - Adagio d'Albinoni (1982) [FLAC]/04 - Sonata No.9 in B Minorпјљ I. Largo.flac
Pre-gap length : 00:04:07
Track gain : -0.27 dB
Peak : 0.626251
CRC32 hash (test run) : F1B49F79
CRC32 hash : F1B49F79
CRC32 hash (skip zero) : 1B1BA9DA
AccurateRip v1 signature : 0966F922
AccurateRip v2 signature : 532AFE2B
->Accurately ripped (v1, confidence 4/4)
Statistics
Read error : 0
Jitter error (maybe fixed) : 0
Retry sector count : 0
Damaged sector count : 0
Track 05
Filename : /Media/Music/seed/Gary Karr - Adagio d'Albinoni (1982) [FLAC]/05 - Sonata No.9 in B Minorпјљ II. Alla breve.flac
Pre-gap length : 00:03:21
Track gain : 0.51 dB
Peak : 0.646179
CRC32 hash (test run) : A2CC4547
CRC32 hash : A2CC4547
CRC32 hash (skip zero) : 29808471
AccurateRip v1 signature : 7ABE1C00
AccurateRip v2 signature : 436AAC33
->Accurately ripped (v1, confidence 4/4)
Statistics
Read error : 0
Jitter error (maybe fixed) : 0
Retry sector count : 0
Damaged sector count : 0
Track 06
Filename : /Media/Music/seed/Gary Karr - Adagio d'Albinoni (1982) [FLAC]/06 - Sonata No.9 in B Minorпјљ III. Andante.flac
Pre-gap length : 00:02:66
Track gain : 0.42 dB
Peak : 0.644196
CRC32 hash (test run) : 514DEFEC
CRC32 hash : 514DEFEC
CRC32 hash (skip zero) : CEDC5538
AccurateRip v1 signature : 9D85C329
AccurateRip v2 signature : AA5D01AA
->Accurately ripped (v1, confidence 4/4)
Statistics
Read error : 0
Jitter error (maybe fixed) : 0
Retry sector count : 0
Damaged sector count : 0
Track 07
Filename : /Media/Music/seed/Gary Karr - Adagio d'Albinoni (1982) [FLAC]/07 - Sonata No.9 in B Minorпјљ IV. Vivace.flac
Pre-gap length : 00:02:56
Track gain : -2.14 dB
Peak : 0.712585
CRC32 hash (test run) : 396F4046
CRC32 hash : 396F4046
CRC32 hash (skip zero) : 4069CDEB
AccurateRip v1 signature : 929B4D43
AccurateRip v2 signature : 5B098002
->Accurately ripped (v1, confidence 4/4)
Statistics
Read error : 0
Jitter error (maybe fixed) : 0
Retry sector count : 0
Damaged sector count : 0
Track 08
Filename : /Media/Music/seed/Gary Karr - Adagio d'Albinoni (1982) [FLAC]/08 - Ave Maria.flac
Pre-gap length : 00:02:64
Track gain : 5.31 dB
Peak : 0.482361
CRC32 hash (test run) : 2C0D21B5
CRC32 hash : 2C0D21B5
CRC32 hash (skip zero) : BEA6C16C
AccurateRip v1 signature : 4D994247
AccurateRip v2 signature : 7DAFA18B
->Accurately ripped (v1, confidence 4/4)
Statistics
Read error : 0
Jitter error (maybe fixed) : 0
Retry sector count : 0
Damaged sector count : 0
No errors occurred
End of status report

Содержание индексной карты (.CUE)

TITLE "Adagio d'Albinoni"
PERFORMER "Gary Karr"
CATALOG 4988003376826
REM GENRE "Classical"
REM DATE "1982"
REM DISCID 6C089908
REM REPLAYGAIN_ALBUM_GAIN -1.91 dB
REM REPLAYGAIN_ALBUM_PEAK 0.964966
FILE "01 - Albinoni, Giazotto- Adagio in G minor.flac" WAVE
TRACK 01 AUDIO
TITLE "Albinoni, Giazotto: Adagio in G minor"
ISRC JPKI08178675
REM REPLAYGAIN_TRACK_GAIN -5.25 dB
REM REPLAYGAIN_TRACK_PEAK 0.964966
INDEX 01 00:00:00
TRACK 02 AUDIO
TITLE "Beethoven: Sonatina"
ISRC JPKI08178677
REM REPLAYGAIN_TRACK_GAIN 0.57 dB
REM REPLAYGAIN_TRACK_PEAK 0.824585
INDEX 00 08:52:08
FILE "02 - Beethoven- Sonatina.flac" WAVE
INDEX 01 00:00:00
TRACK 03 AUDIO
TITLE "Franck: Piece No.V"
ISRC JPKI08178678
REM REPLAYGAIN_TRACK_GAIN 1.23 dB
REM REPLAYGAIN_TRACK_PEAK 0.625763
INDEX 00 04:47:01
FILE "03 - Franck- Piece No.V.flac" WAVE
INDEX 01 00:00:00
TRACK 04 AUDIO
TITLE "Handel: Sonata No.9: I. Largo"
ISRC JPKI00914267
REM REPLAYGAIN_TRACK_GAIN -0.27 dB
REM REPLAYGAIN_TRACK_PEAK 0.626251
INDEX 00 05:58:06
FILE "04 - Handel- Sonata No.9- I. Largo.flac" WAVE
INDEX 01 00:00:00
TRACK 05 AUDIO
TITLE "Handel: Sonata No.9: II. Alla breve"
ISRC JPKI00914268
REM REPLAYGAIN_TRACK_GAIN 0.51 dB
REM REPLAYGAIN_TRACK_PEAK 0.646179
INDEX 00 03:40:16
FILE "05 - Handel- Sonata No.9- II. Alla breve.flac" WAVE
INDEX 01 00:00:00
TRACK 06 AUDIO
TITLE "Handel: Sonata No.9: III. Andante"
ISRC JPKI00914269
REM REPLAYGAIN_TRACK_GAIN 0.42 dB
REM REPLAYGAIN_TRACK_PEAK 0.644196
INDEX 00 02:26:39
FILE "06 - Handel- Sonata No.9- III. Andante.flac" WAVE
INDEX 01 00:00:00
TRACK 07 AUDIO
TITLE "Handel: Sonata No.9: IV. Vivace"
ISRC JPKI00914270
REM REPLAYGAIN_TRACK_GAIN -2.14 dB
REM REPLAYGAIN_TRACK_PEAK 0.712585
INDEX 00 04:06:09
FILE "07 - Handel- Sonata No.9- IV. Vivace.flac" WAVE
INDEX 01 00:00:00
TRACK 08 AUDIO
TITLE "J.S. Bach, Gounod: Ave Maria"
ISRC JPKI08178674
REM REPLAYGAIN_TRACK_GAIN 5.31 dB
REM REPLAYGAIN_TRACK_PEAK 0.482361
INDEX 00 01:58:04
FILE "08 - J.S. Bach, Gounod- Ave Maria.flac" WAVE
INDEX 01 00:00:00

Отчет CUETools

[CUETools log; Date: 08.06.2015 14:50:59; Version: 2.1.5]
[CTDB TOCID: kwA9FqYcNFqUuOs0RO6B6NuPkIE-] found.
Track | CTDB Status
1 | (1/1) Accurately ripped
2 | (1/1) Accurately ripped
3 | (1/1) Accurately ripped
4 | (1/1) Accurately ripped
5 | (1/1) Accurately ripped
6 | (1/1) Accurately ripped
7 | (1/1) Accurately ripped
8 | (1/1) Accurately ripped
[AccurateRip ID: 000d2715-00534f24-6c089908] found.
Track [ CRC | V2 ] Status
01 [3c85110b|3399b774] (04+07/11) Accurately ripped
02 [04b15e35|148309e2] (04+07/11) Accurately ripped
03 [518e2ad8|75227133] (04+07/11) Accurately ripped
04 [0966f922|532afe2b] (04+07/11) Accurately ripped
05 [7abe1c00|436aac33] (04+07/11) Accurately ripped
06 [9d85c329|aa5d01aa] (04+07/11) Accurately ripped
07 [929b4d43|5b098002] (04+07/11) Accurately ripped
08 [4d994247|7dafa18b] (04+07/11) Accurately ripped
Track Peak [ CRC32 ] [W/O NULL]
-- 96,4 [A593E091] [D3A53D33]
01 96,4 [E7641E18] [4ACEFEE9]
02 82,4 [6833DB9F] [C60E31C7]
03 62,5 [81323E6A] [EB78E460]
04 62,6 [F1B49F79] [1B1BA9DA]
05 64,6 [A2CC4547] [29808471]
06 64,4 [514DEFEC] [CEDC5538]
07 71,2 [396F4046] [4069CDEB]
08 48,2 [2C0D21B5] [BEA6C16C]

Об альбоме (сборнике)

Gary Karr, acclaimed as "the world's leading solo bassist" (Time Magazine), is, in fact, the first solo double bassist in history to make that pursuit a full-time career. It is a career that adds new lustre to his already lustrous 1611 Amati double bass which was given to him by the widow of Serge Koussevitzky.
Since his debut with Leonard Bernstein and the New York Philharmonic in 1962, Karr has performed as soloist on six continents with orchestras, including the Chicago Symphony, London Philharmonic Orchestra, Hong Kong Philharmonic, Montreal Symphony, Simon Bolivar Orchestra (Caracas, Venezuela), Jerusalem Symphony, Oslo Philharmonic, Zurich Chamber Orchestra, and with all the major orchestras of Australia.
The record that set the standard for fidelity. Often imitated, never surpassed. Karr's beloved Adagio d'Albinoni - recorded September 22, 1981, at Vega Hall in Takarazuka, Japan and originally issued in 1982 - has been a perennial favorite of audiophiles the world over. Rarely, if ever, has the deep, sonorous tone of the legendary Amati double bass been captured with such precision and verisimilitude. Stately and soulful, Gary Karr was a player of uncommon grace and this was the recording that set him in the pantheon of the greatest double bass artist!
(Classical / Contrabass / Double Bass) Gary Karr - Adagio d'Albinoni - 1989, APE (image + .cue), lossless - другое издание



Показать сообщения:    

Текущее время: 19-Янв 22:16

Часовой пояс: UTC + 3


Вы не можете начинать темы
Вы не можете отвечать на сообщения
Вы не можете редактировать свои сообщения
Вы не можете удалять свои сообщения
Вы не можете голосовать в опросах
Вы не можете прикреплять файлы к сообщениям
Вы не можете скачивать файлы