Брижит Бардо: интервью каналу RTF / Cinepanorama: Brigitte Bardot RTF Interview (Жан Кершброн / Jean Kerchbron) [09.12.1956, документальный, кинематограф, DVDRip-AVC] Original (Fre) + Sub (Rus)


Статистика раздачи [Обновить пиров]
Размер:  88 MB   |    Зарегистрирован:  8 месяцев 21 день   |    Скачан:  0 раз

Полного источника не было: Никогда

 
   
 
 
 

[Цитировать]

Брижит Бардо: интервью каналу RTF
Cinépanorama: Brigitte Bardot RTF Interview- Дата/Год выпуска: 09.12.1956
Страна: Франция
Жанр: документальный, кинематограф
Продолжительность: 00:05:50
Перевод: Субтитры
Русские субтитры: естьФормат субтитров: softsub (SRT)
Доп. информация о субтитрах: перевод Алексей Королев, инициатор Алексей Проскуряков aka Aleks Punk
Оригинальная аудиодорожка: французский
Режиссер: Жан Кершброн / Jean Kerchbron
Описание: Интервью с Брижит Бардо после окончания съемок фильма "Невеста очень красива (Её брачная ночь) / La mariee est trop belle" (1956) реж. Пьера Гаспара-Юи.
Интервью берет журналист, киновед, писатель и режиссер Франсуа Шале / François Chalais, в честь которого ежегодно вручается приз за заслуги в журналистике на кинофестивале в Каннах.
Доп. информация: Интервью вышло на 3-х-дисковом DVD-сборнике "Reflets de Cannes & Cinépanorama" в 2011 году. За предоставленный материал благодарность Aleks Punk.

качество: DVDRip-AVC
формат: MKV
Видео: AVC (H.264), 640x480 (4:3), 25 fps, ~1861 kbps avg, 0.242 bit/pixel
Аудио: AC3, 2 ch, 48 kHz, ~192.00 kbps avg

Пример субтитров

1
00:00:00,660 --> 00:00:04,300
Передача от 09.12.1956,
автор - Жан Кершброн
2
00:00:06,140 --> 00:00:07,540
- Вот и мы.
3
00:00:08,580 --> 00:00:10,060
Что вы об этом думаете?
4
00:00:10,340 --> 00:00:13,140
- Я думаю, что надо быть совсем ненормальным,
чтобы быть против.
5
00:00:16,900 --> 00:00:18,820
Вы наверно должны быть
очень обеспокоены.
6
00:00:19,140 --> 00:00:20,220
- Почему?
7
00:00:20,540 --> 00:00:22,820
- Из-за вашей репутации.
8
00:00:23,020 --> 00:00:29,180
Похоже, что вы никогда не приходите на встречи.
Не только на те, которые вам назначают,- это
было бы еще нормально, но и на те,
которые назначаете вы сами.
9
00:00:29,500 --> 00:00:30,620
Это правда?
10
00:00:30,900 --> 00:00:33,260
- Лучший ответ - это то,
что я сейчас здесь.
11
00:00:33,580 --> 00:00:35,220
- Это наверное первый раз, когда вы
можете так ответить.
12
00:00:35,380 --> 00:00:39,940
Это начало новой карьеры? Может быть
мы свидетели появления новой Брижит Бардо?
Вот что интересно.
13
00:00:40,700 --> 00:00:43,820
- Да? Вы так думаете?.. Нет, ну я все-таки
прихожу на некоторые встречи.
14
00:00:43,980 --> 00:00:45,740
- Я верю всему, что говорят, понимаете?
15
00:00:46,020 --> 00:00:49,300
Дорогая Брижит, у вас
не очень хорошая репутация.
16
00:00:49,500 --> 00:00:51,740
Вы знаете в чем вас упрекают?
- Вы пришли сюда оскорблять меня?
17
00:00:52,020 --> 00:00:56,220
- Нет, но чтобы прояснить дело, чтобы вы
могли ответить на неприятные вопросы.
- Хорошо, хорошо.
18
00:00:56,700 --> 00:00:58,740
Я должна была прийти сюда,
чтобы защищаться, в конце концов.
19
00:00:59,020 --> 00:01:00,380
- А почему нет?
Воспользуйтесь возможностью.
20
00:01:00,540 --> 00:01:06,580
- У меня был период, может быть где-то полгода,
когда я забивала на всё, не ходила на встречи...

MediaInfo

Общее
Уникальный идентификатор : 178532238925552071741432643843650852711 (0x86500EF9C255A774A3C54D51C9E59767)
Полное имя : F:\My Torrents 3\[apreder]Cinepanorama_Brigitte_Bardot_RTF_Interview(1956)DVDRip.mkv
Формат : Matroska
Версия формата : Version 2
Размер файла : 87,7 Мбайт
Продолжительность : 5 м. 50 с.
Общий поток : 2095 Кбит/сек
Дата кодирования : UTC 2015-06-08 15:51:44
Программа кодирования : mkvmerge v7.9.0 ('Birds') 64bit
Библиотека кодирования : libebml v1.3.1 + libmatroska v1.4.2
Видео
Идентификатор : 1
Формат : AVC
Формат/Информация : Advanced Video Codec
Профиль формата : High@L4.1
Параметр CABAC формата : Да
Параметр ReFrames формата : 16 кадров
Идентификатор кодека : V_MPEG4/ISO/AVC
Продолжительность : 5 м. 50 с.
Битрейт : 1861 Кбит/сек
Номинальный битрейт : 2000 Кбит/сек
Ширина : 640 пикселей
Высота : 480 пикселей
Соотношение сторон : 4:3
Режим частоты кадров : Постоянный
Частота кадров : 25,000 кадров/сек
Цветовое пространство : YUV
Субдискретизация насыщенности : 4:2:0
Битовая глубина : 8 бит
Тип развёртки : Прогрессивная
Бит/(Пиксели*Кадры) : 0.242
Размер потока : 77,9 Мбайт (89%)
Библиотека кодирования : x264 core 144 r2525 40bb568
Настройки программы : cabac=1 / ref=16 / deblock=1:-1:-1 / analyse=0x3:0x133 / me=umh / subme=10 / psy=1 / psy_rd=1.00:0.15 / mixed_ref=1 / me_range=24 / chroma_me=1 / trellis=2 / 8x8dct=1 / cqm=0 / deadzone=21,11 / fast_pskip=1 / chroma_qp_offset=-3 / threads=6 / lookahead_threads=1 / sliced_threads=0 / nr=0 / decimate=1 / interlaced=0 / bluray_compat=0 / constrained_intra=0 / bframes=8 / b_pyramid=2 / b_adapt=2 / b_bias=0 / direct=3 / weightb=1 / open_gop=0 / weightp=2 / keyint=250 / keyint_min=25 / scenecut=40 / intra_refresh=0 / rc_lookahead=60 / rc=2pass / mbtree=1 / bitrate=2000 / ratetol=1.0 / qcomp=0.60 / qpmin=0 / qpmax=69 / qpstep=4 / cplxblur=20.0 / qblur=0.5 / vbv_maxrate=62500 / vbv_bufsize=78125 / nal_hrd=none / filler=0 / ip_ratio=1.40 / aq=1:1.00
Default : Да
Forced : Нет
Аудио
Идентификатор : 2
Формат : AC-3
Формат/Информация : Audio Coding 3
Расширение режима : CM (complete main)
Параметр Endianness формата : Big
Идентификатор кодека : A_AC3
Продолжительность : 5 м. 50 с.
Вид битрейта : Постоянный
Битрейт : 192 Кбит/сек
Каналы : 2 канала
Расположение каналов : Front: L R
Частота : 48,0 КГц
Метод сжатия : С потерями
Размер потока : 8,03 Мбайт (9%)
Язык : French
Default : Да
Forced : Нет
Текст
Идентификатор : 3
Формат : UTF-8
Идентификатор кодека : S_TEXT/UTF8
Идентификатор кодека/Информация : UTF-8 Plain Text
Язык : Russian
Default : Да
Forced : Нет

Скриншоты

Резервные скриншоты

-[2'316]
[teatrix.ru].t21409.torrent 
Торрент: Зарегистрирован [ 2016-03-20 12:13 ] · F558B77360ECD7D5D691DAE5987EC2AED2D7E595

Скачать .torrent

Скачать

14 KB

Статус: проверено
Скачан: 0 раз
Размер: 88 MB
terms.php



Показать сообщения:    

Текущее время: 11-Дек 01:28

Часовой пояс: UTC + 3


Вы не можете начинать темы
Вы не можете отвечать на сообщения
Вы не можете редактировать свои сообщения
Вы не можете удалять свои сообщения
Вы не можете голосовать в опросах
Вы не можете прикреплять файлы к сообщениям
Вы можете скачивать файлы