(Classical) Benjamin Britten - Simple Symphony; String Quartet in F; Rhapsody; Phantasy; Quartettino - Emperor Quartet - 2014, FLAC (image+.cue) lossless


 

[Цитировать]

Benjamin Britten - Simple Symphony; String Quartet in F; Rhapsody; Phantasy; Quartettino - Emperor Quartet
Жанр: Classical
Страна-производитель диска: Sweden
Год издания диска: 2014
Издатель (лейбл): BIS
Номер по каталогу: BIS-SACD-1870
Дата записи: 2011
Аудиокодек: FLAC
Тип рипа: image+.cue
Битрейт аудио: lossless
Продолжительность: 74:36
Источник: собственный рип
Наличие сканов в содержимом раздачи: да
Треклист:
Benjamin Britten (1913–76)
[1]-[4] Simple Symphony, Op. 4 (1933–34)
[5] Rhapsody (1929)
[6]-[8] Quartettino (1930)
[9] Phantasy in F minor for string quintet (1932)
[10]-[13] String Quartet in F (1928)
Исполнители:
Emperor Quartet
Martin Burgess violin
Clare Hayes violin
Fiona Bonds viola
William Schofield cello
John Metcalfe viola II [Phantasy]

Лог создания рипа

Exact Audio Copy V1.0 beta 3 from 29. August 2011
EAC extraction logfile from 16. January 2015, 2:42
Emperor Quartet / Britten - Simple Symphony; String Quartet in F
Used drive : HL-DT-STDVDRAM GU70N Adapter: 0 ID: 0
Read mode : Secure
Utilize accurate stream : Yes
Defeat audio cache : Yes
Make use of C2 pointers : No
Read offset correction : 48
Overread into Lead-In and Lead-Out : No
Fill up missing offset samples with silence : Yes
Delete leading and trailing silent blocks : No
Null samples used in CRC calculations : Yes
Used interface : Native Win32 interface for Win NT & 2000
Used output format : User Defined Encoder
Selected bitrate : 128 kBit/s
Quality : High
Add ID3 tag : No
Command line compressor : C:\Program Files (x86)\Exact Audio Copy\Flac\flac.exe
Additional command line options : -V -8 -T "Date=%year%" -T "Genre=%genre%" %source%
TOC of the extracted CD
Track | Start | Length | Start sector | End sector
---------------------------------------------------------
1 | 0:00.00 | 2:56.26 | 0 | 13225
2 | 2:56.26 | 3:13.13 | 13226 | 27713
3 | 6:09.39 | 6:43.20 | 27714 | 57958
4 | 12:52.59 | 3:10.18 | 57959 | 72226
5 | 16:03.02 | 7:42.57 | 72227 | 106933
6 | 23:45.59 | 6:21.41 | 106934 | 135549
7 | 30:07.25 | 6:35.56 | 135550 | 165230
8 | 36:43.06 | 3:40.09 | 165231 | 181739
9 | 40:23.15 | 11:18.16 | 181740 | 232605
10 | 51:41.31 | 8:42.05 | 232606 | 271760
11 | 60:23.36 | 2:58.54 | 271761 | 285164
12 | 63:22.15 | 4:26.39 | 285165 | 305153
13 | 67:48.54 | 6:48.16 | 305154 | 335769
Range status and errors
Selected range
Filename C:\temp\BIS-SACD-1870 - Britten - Simple Symphony; String Quartet in F\Britten - Simple Symphony; String Quartet in F.wav
Peak level 94.3 %
Extraction speed 2.3 X
Range quality 100.0 %
Test CRC 3AF50D97
Copy CRC 3AF50D97
Copy OK
No errors occurred
AccurateRip summary
Track 1 not present in database
Track 2 not present in database
Track 3 not present in database
Track 4 not present in database
Track 5 not present in database
Track 6 not present in database
Track 7 not present in database
Track 8 not present in database
Track 9 not present in database
Track 10 not present in database
Track 11 not present in database
Track 12 not present in database
Track 13 not present in database
None of the tracks are present in the AccurateRip database
End of status report
==== Log checksum 0CC8084E9071E3B2AE417AFADE5FFB35A6F4C35B58E4EE10F4F84041D4F12BE9 ====



Показать сообщения:    

Текущее время: 05-Дек 23:41

Часовой пояс: UTC + 3


Вы не можете начинать темы
Вы не можете отвечать на сообщения
Вы не можете редактировать свои сообщения
Вы не можете удалять свои сообщения
Вы не можете голосовать в опросах
Вы не можете прикреплять файлы к сообщениям
Вы не можете скачивать файлы