(Opera) Nessler - Der Trompeter von Sackingen (Hagen, Hawlata, Kammerloher, Klepper, Kuhn, Prey, - Kolner Rundfunkchor & orchester, Froschauer) - 1997, APE (image+.cue) lossless


 

[Цитировать]

Viktor Nessler - Der Trompeter von Säckingen
Жанр: Opera
Страна-производитель диска: Germany
Год издания диска: 1997
Издатель (лейбл): Capriccio
Номер по каталогу: 60055-2
Дата записи: 1994
Аудиокодек: APE
Тип рипа: image+.cue
Битрейт аудио: lossless
Продолжительность: 62'04+46'13
Источник: собственный рип
Наличие сканов в содержимом раздачи: да
Треклист:

CD1

1. Prelude / Alt Heidelbergm, du feine … / Ha! Ha! Ha!
2. Trumpeter's song: Aber, aber, meine Herren … / Serenade: Ich knie vor Euch … / Gegen Geister hilft der Pater …
3. Duet: Ei, ei Jungburschlein wohlgemut …
4. Darum greif nach der Trompete … / Haltet ein!
5. Act I: Peasant's Dance: Der Hans schwingt die Liese …
6. Act I: Ensemble and Recitative: Das ist doch eine Sund und Schand!
7. Act I: Recitative: Viel bunte Nachen wiegt der Rhein … / O, heil'ger Fridoline …
8. Act I: Gout Aria: Da schlage doch das Wetter drein …
9. Act I: Recitative, Melodrama and Arieta: Das kommt vom Grafen Wildenstein!
10. Act I: Trio: Zurne nicht, mein Vaterchen …
11. Act I: Recitative, Nocturne and Song: Wenig Dank wisst Ihr dem Retter … / Quartet and Finale: Ha, da ist er!

CD2

1. Act II: Recitative and Song: So wird es recht! / Duet and Song: Was solch Landsknechtmusikus …
2. Act II: Quartet: Ihr habt gewiss schon mein geharrt … / Love Duet: Gott sei gedankt, wir sind allein …
3. Act II: Double Ensemble: Zu Hilfe! Zu Hilfe!
4. Act II: The May Day Festival: Es kommt ein wundersamer Knab
5. Act II: Finale: Ha, das sind sie!
6. Act II: Das ist im Leben hasslich eingerichtet
7. Act III: Aria: Verlorene Liebe, erstobenes Gluck!
8. Act III: Quintet: Schnell, ihe Knechte, schliesst das Tor! / Heil dem Tapfern! Heil dem Sieger …
Исполнители:
Viktor Nessler - Der Trompeter von Säkkingen
opera in a prologue and three acts
libretto: Rudolf Bunge, based on the epic poem, Der Trompeter von Säckingen by Joseph Viktor von Scheffel.
The rector - Reinhard Hagen (Bass)
Werner Kirchhofer - Hermann Prey (Baritone)
Konradin - Franz Hawlata (Bass),
Baron von Schönau - Alfred Kuhn (Bass)
Maria, daughter of the Baron - Regina Klepper (Soprano)
Countess Wildenstein - Katharina Kammerloher (Soprano),
Damian - Christoph Späth (Tenor)
Kölner Rundfunkchor
Kölner Rundfunkorchester
Helmuth Froschauer (Conductor)
Language: German

Лог создания рипа

CD1

Exact Audio Copy V1.0 beta 3 from 29. August 2011
EAC extraction logfile from 8. January 2015, 12:45
Nessler / Der Trompeter von Säkkingen, Froschauer CD1
Used drive : TSSTcorpCDDVDW SE-208AB Adapter: 1 ID: 0
Read mode : Secure
Utilize accurate stream : Yes
Defeat audio cache : Yes
Make use of C2 pointers : No
Read offset correction : 6
Overread into Lead-In and Lead-Out : No
Fill up missing offset samples with silence : Yes
Delete leading and trailing silent blocks : No
Null samples used in CRC calculations : Yes
Used interface : Native Win32 interface for Win NT & 2000
Used output format : Monkey's Audio Lossless Encoder
Selected bitrate : High Lossless Compression
Quality : High
Add ID3 tag : Yes
Command line compressor : C:\Program Files (x86)\Exact Audio Copy\MAC\MAC.exe
TOC of the extracted CD
Track | Start | Length | Start sector | End sector
---------------------------------------------------------
1 | 0:00.00 | 3:54.65 | 0 | 17614
2 | 3:54.65 | 8:06.32 | 17615 | 54096
3 | 12:01.22 | 3:28.48 | 54097 | 69744
4 | 15:29.70 | 5:24.72 | 69745 | 94116
5 | 20:54.67 | 4:49.62 | 94117 | 115853
6 | 25:44.54 | 2:46.63 | 115854 | 128366
7 | 28:31.42 | 9:16.63 | 128367 | 170129
8 | 37:48.30 | 4:14.70 | 170130 | 189249
9 | 42:03.25 | 2:42.40 | 189250 | 201439
10 | 44:45.65 | 3:21.17 | 201440 | 216531
11 | 48:07.07 | 13:54.50 | 216532 | 279131
Range status and errors
Selected range
Filename D:\EAC\Nessler - Der Trompeter von Säkkingen, Froschauer CD1.wav
Peak level 98.8 %
Extraction speed 4.9 X
Range quality 100.0 %
Test CRC CDCBBAA2
Copy CRC CDCBBAA2
Copy OK
No errors occurred
AccurateRip summary
Track 1 accurately ripped (confidence 1) [B7D3A109] (AR v1)
Track 2 accurately ripped (confidence 1) [ABE99F29] (AR v1)
Track 3 accurately ripped (confidence 1) [4EB5BAA9] (AR v1)
Track 4 accurately ripped (confidence 1) [ED57D0BA] (AR v1)
Track 5 accurately ripped (confidence 1) [FD7E5ADC] (AR v1)
Track 6 accurately ripped (confidence 1) [E9F156C5] (AR v1)
Track 7 accurately ripped (confidence 1) [A93A84EF] (AR v1)
Track 8 accurately ripped (confidence 1) [61436EFC] (AR v1)
Track 9 accurately ripped (confidence 1) [AB2D2171] (AR v1)
Track 10 accurately ripped (confidence 1) [0ECC3F64] (AR v1)
Track 11 accurately ripped (confidence 1) [44019806] (AR v1)
All tracks accurately ripped
End of status report
---- CUETools DB Plugin V2.1.3
[CTDB TOCID: zWzPxmNhxAMxcxb.bgmOyjfw2s8-] disk not present in database, Submit result: zWzPxmNhxAMxcxb.bgmOyjfw2s8- has been uploaded
==== Log checksum 0E964507328046CB6EF29709C779B33792E9DC394A2A9B1A0FE49CB9951F2133 ====

CD2

Exact Audio Copy V1.0 beta 3 from 29. August 2011
EAC extraction logfile from 8. January 2015, 12:48
Nessler / Der Trompeter von Säkkingen, Froschauer CD2
Used drive : TS8XDVDSTRANSCEND Adapter: 1 ID: 1
Read mode : Secure
Utilize accurate stream : Yes
Defeat audio cache : Yes
Make use of C2 pointers : No
Read offset correction : 6
Overread into Lead-In and Lead-Out : No
Fill up missing offset samples with silence : Yes
Delete leading and trailing silent blocks : No
Null samples used in CRC calculations : Yes
Used interface : Native Win32 interface for Win NT & 2000
Used output format : Monkey's Audio Lossless Encoder
Selected bitrate : High Lossless Compression
Quality : High
Add ID3 tag : Yes
Command line compressor : C:\Program Files (x86)\Exact Audio Copy\MAC\MAC.exe
TOC of the extracted CD
Track | Start | Length | Start sector | End sector
---------------------------------------------------------
1 | 0:00.00 | 5:12.60 | 0 | 23459
2 | 5:12.60 | 11:12.55 | 23460 | 73914
3 | 16:25.40 | 2:28.72 | 73915 | 85086
4 | 18:54.37 | 1:45.13 | 85087 | 92974
5 | 20:39.50 | 5:04.20 | 92975 | 115794
6 | 25:43.70 | 5:31.02 | 115795 | 140621
7 | 31:14.72 | 5:16.03 | 140622 | 164324
8 | 36:31.00 | 9:40.00 | 164325 | 207824
Range status and errors
Selected range
Filename D:\EAC\Nessler - Der Trompeter von Säkkingen, Froschauer CD2.wav
Peak level 98.8 %
Extraction speed 2.8 X
Range quality 100.0 %
Test CRC 8B30F14D
Copy CRC 8B30F14D
Copy OK
No errors occurred
AccurateRip summary
Track 1 accurately ripped (confidence 1) [464B89CD] (AR v1)
Track 2 accurately ripped (confidence 1) [26C2D1DB] (AR v1)
Track 3 accurately ripped (confidence 1) [59110946] (AR v1)
Track 4 accurately ripped (confidence 1) [350786DF] (AR v1)
Track 5 accurately ripped (confidence 1) [AFE12C5B] (AR v1)
Track 6 accurately ripped (confidence 1) [81C54941] (AR v1)
Track 7 accurately ripped (confidence 1) [67D2200C] (AR v1)
Track 8 accurately ripped (confidence 1) [682755EB] (AR v1)
All tracks accurately ripped
End of status report
---- CUETools DB Plugin V2.1.3
[CTDB TOCID: t351WGOmRew5q7OlM1ivDi2IsVs-] disk not present in database, Submit result: unrecognized or virtual drive
==== Log checksum 1AAC0D0E8A0CB1F057AF540837E87BA477C4B52BFA4C3FE7CCCA5CACBF786690 ====

Содержание индексной карты (.CUE)

CD1

REM GENRE Opera
REM DATE 1994
REM DISCID 9B0E890B
REM COMMENT "ExactAudioCopy v1.0b3"
PERFORMER "Nessler"
TITLE "Der Trompeter von Säkkingen, Froschauer CD1"
FILE "Nessler - Der Trompeter von Säkkingen, Froschauer CD1.ape" WAVE
TRACK 01 AUDIO
TITLE "Prelude / Alt Heidelbergm, du feine … / Ha! Ha! Ha!"
PERFORMER "Nessler"
INDEX 01 00:00:00
INDEX 02 03:17:05
TRACK 02 AUDIO
TITLE "Trumpeter's song: Aber, aber, meine Herren … / Serenade: Ich knie vor Euch … ..."
PERFORMER "Nessler"
INDEX 01 03:54:65
INDEX 02 08:17:42
TRACK 03 AUDIO
TITLE "Duet: Ei, ei Jungburschlein wohlgemut …"
PERFORMER "Nessler"
INDEX 01 12:01:22
TRACK 04 AUDIO
TITLE "Darum greif nach der Trompete … / Haltet ein!"
PERFORMER "Nessler"
INDEX 01 15:29:70
INDEX 02 17:10:20
TRACK 05 AUDIO
TITLE "Act I: Peasant's Dance: Der Hans schwingt die Liese …"
PERFORMER "Nessler"
INDEX 01 20:54:67
TRACK 06 AUDIO
TITLE "Act I: Ensemble and Recitative: Das ist doch eine Sund und Schand!"
PERFORMER "Nessler"
INDEX 01 25:44:54
TRACK 07 AUDIO
TITLE "Act I: Recitative: Viel bunte Nachen wiegt der Rhein … / O, heil'ger Fridoline …"
PERFORMER "Nessler"
INDEX 01 28:31:42
INDEX 02 34:59:20
TRACK 08 AUDIO
TITLE "Act I: Gout Aria: Da schlage doch das Wetter drein …"
PERFORMER "Nessler"
INDEX 01 37:48:30
TRACK 09 AUDIO
TITLE "Act I: Recitative, Melodrama and Arieta: Das kommt vom Grafen Wildenstein!"
PERFORMER "Nessler"
INDEX 01 42:03:25
TRACK 10 AUDIO
TITLE "Act I: Trio: Zurne nicht, mein Vaterchen …"
PERFORMER "Nessler"
INDEX 01 44:45:65
TRACK 11 AUDIO
TITLE "Act I: Recitative, Nocturne and Song: Wenig Dank wisst Ihr dem Retter … / Qua..."
PERFORMER "Nessler"
INDEX 01 48:07:07
INDEX 02 53:44:22

CD2

REM GENRE Opera
REM DATE 1994
REM DISCID 690AD308
REM COMMENT "ExactAudioCopy v1.0b3"
PERFORMER "Nessler"
TITLE "Der Trompeter von Säkkingen, Froschauer CD2"
FILE "Nessler - Der Trompeter von Säkkingen, Froschauer CD2.ape" WAVE
TRACK 01 AUDIO
TITLE "Act II: Recitative and Song: So wird es recht! / Duet and Song: Was solch Lan..."
PERFORMER "Nessler"
INDEX 01 00:00:00
INDEX 02 01:28:65
TRACK 02 AUDIO
TITLE "Act II: Quartet: Ihr habt gewiss schon mein geharrt … / Love Duet: Gott sei g..."
PERFORMER "Nessler"
INDEX 01 05:12:60
INDEX 02 10:18:72
TRACK 03 AUDIO
TITLE "Act II: Double Ensemble: Zu Hilfe! Zu Hilfe!"
PERFORMER "Nessler"
INDEX 01 16:25:40
TRACK 04 AUDIO
TITLE "Act II: The May Day Festival: Es kommt ein wundersamer Knab"
PERFORMER "Nessler"
INDEX 01 18:54:37
TRACK 05 AUDIO
TITLE "Act II: Finale: Ha, das sind sie!"
PERFORMER "Nessler"
INDEX 01 20:39:50
TRACK 06 AUDIO
TITLE "Act II: Das ist im Leben hasslich eingerichtet"
PERFORMER "Nessler"
INDEX 01 25:43:70
TRACK 07 AUDIO
TITLE "Act III: Aria: Verlorene Liebe, erstobenes Gluck!"
PERFORMER "Nessler"
INDEX 01 31:14:72
TRACK 08 AUDIO
TITLE "Act III: Quintet: Schnell, ihe Knechte, schliesst das Tor! / Heil dem Tapfern..."
PERFORMER "Nessler"
INDEX 01 36:31:00
INDEX 02 41:34:65
Доп. информация:
The first performance of Victo Nessler's The Trumpeter of Sackingen on 4 May 1884 at the Stadttheater in Leipzig was an unprecedented success.
For the hundredth Leipzig performance there was a procession with flaming torches in honour of the composer.
The Trumpeter then began its triumphant conquest of the entire German theatre scene; within a few years the opera had been performed several thousand times and, by the turn of the 20th Century, had established its place in the repertoire of all the major opera houses.
That great critical authority Eduard Hanslick made an attempt to analyze the 'popular force, the winning something' in Nessler's 'musical mediocrity', and concluded: 'The most remarkable thing in this unprecedentedly successful opera is precisely its success'!
In 1884 - the year following Wagner's death, which also saw the premieres of Massenet's Manon and Puccini's first opera, Le Villi, Bruckner's Seventh Symphony and Mahler's Lieder eines fahrenden Gesellen (Songs of a Wayfarer) - the tastes of the Biedermeier period and its quaint Romanticism had made their second conquest of the German opera world.
Synopsis
Setting: 17th-century Heidelberg and Säkkingen, after the Thirty Years War.
The trumpeter Werner loves Maria, the daughter of the Baron, but her father and mother want her to marry the cowardly Damian.
Werner proves himself a hero and is opportunely discovered to be of noble birth, so all ends happily.



Показать сообщения:    

Текущее время: 05-Дек 21:32

Часовой пояс: UTC + 3


Вы не можете начинать темы
Вы не можете отвечать на сообщения
Вы не можете редактировать свои сообщения
Вы не можете удалять свои сообщения
Вы не можете голосовать в опросах
Вы не можете прикреплять файлы к сообщениям
Вы не можете скачивать файлы