(Classical) Claude Debussy - Fantaisie for Piano and Orchestra, Rapsodie for Alto Saxophone, Premiere Rapsodie, Danses, Sarabande, L'isle Joyeuse, La Plus que Lente, Clair de Lune - Y.P. Tortelier - 1995, FLAC (image+.cue) lossless


 

[Цитировать]

Claude Debussy - Fantaisie for Piano and Orchestra, Rapsodie for Alto Saxophone, Premiere Rapsodie, Danses, Sarabande, L'isle Joyeuse, La Plus que Lente, Clair de Lune - Y.P. Tortelier
Жанр: Classical
Страна-производитель диска: England
Год издания диска: 1995
Издатель (лейбл): Chandos
Номер по каталогу: CHAN 7018
Дата записи: 1989, 1993
Аудиокодек: FLAC
Тип рипа: image+.cue
Битрейт аудио: lossless
Продолжительность: 73:27
Источник: собственный рип
Наличие сканов в содержимом раздачи: да
Треклист:
Claude Debussy (1862-1918)
Fantaisie pour piano et orchestre 24:54
1. I Andante ma non troppo - Allegro giusto 8:29
2. II Lento e molto espressivo - 8:12
3. Allegro molto 8:10
Anne Queffélec piano
4. Première rapsodie pour orchestre avec clarinette principale 7:37
Rêveusement lent
Christopher King clarinet
Danses pour harpe et orchestre a cordes 9:49
5. Danse sacrée: Très modéré 4:50
6. Danse profane: Modéré 4:59
Rachel Masters harp
7. Rapsodie for alto saxophone and orchestra 10:09
orchestration by Roger-Ducasse
Très modéré
Gerard McChrystal saxophone
8. Sarabande 4:29
orchestration hy Maurice Ravel
Avec une élégance grave et lente
9. L’isle joyeuse 6:11
orchestration by Bernardino Molinari
Quasi una cadenza - Tempo: modéré et très souple
10. La plus que lente 5:17
Lent
Derek Bell cimbalom solo
11. Clair de lune 4:13
orchestration by André Caplet
Andante, très expressif
Исполнители:
Ulster Orchestra
Yan Pascal Tortelier conductor
Anne Queffélec piano
Christopher King clarinet
Rachel Masters harp
Gerard McChrystal saxophone
Derek Bell cimbalom solo

Лог создания рипа

Exact Audio Copy V1.0 beta 3 from 29. August 2011
Отчёт EAC об извлечении, выполненном 9. июня 2015, 14:43
Tortelier & The Ulster Orchestra / Debussy Fantaisie
Дисковод: TSSTcorpBDDVDW SE-506BB Adapter: 5 ID: 0
Режим чтения : Достоверность
Использование точного потока : Да
Отключение кэша аудио : Да
Использование указателей C2 : Нет
Коррекция смещения при чтении : 6
Способность читать области Lead-in и Lead-out : Нет
Заполнение пропущенных сэмплов тишиной : Да
Удаление блоков с тишиной в начале и конце : Нет
При вычислениях CRC использовались нулевые сэмплы : Да
Интерфейс : Встроенный Win32-интерфейс для Win NT/2000
Выходной формат : Пользовательский кодировщик
Выбранный битрейт : 768 kBit/s
Качество : Высокий
Добавление ID3-тега : Нет
Утилита сжатия : E:\Program Files\audio\EAC\FLAC\FLAC.EXE
Дополнительные параметры : -6 -V -T "ARTIST=%artist%" -T "TITLE=%title%" -T "ALBUM=%albumtitle%" -T "DATE=%year%" -T "TRACKNUMBER=%tracknr%" -T "GENRE=%genre%" -T "COMMENT=%comment%" -T "BAND=%albuminterpret%" -T "ALBUMARTIST=%albuminterpret%" -T "COMPOSER=%composer%" %haslyrics%--tag-from-file=LYRICS="%lyricsfile%"%haslyrics% -T "DISCNUMBER=%cdnumber%" -T "TOTALDISCS=%totalcds%" -T "TOTALTRACKS=%numtracks%" %hascover%--picture="%coverfile%"%hascover% %source% -o %dest%
TOC извлечённого CD
Трек | Старт | Длительность | Начальный сектор | Конечный сектор
---------------------------------------------------------------------
1 | 0:00.00 | 8:32.50 | 0 | 38449
2 | 8:32.50 | 8:11.55 | 38450 | 75329
3 | 16:44.30 | 8:15.20 | 75330 | 112474
4 | 24:59.50 | 7:47.25 | 112475 | 147524
5 | 32:47.00 | 4:50.70 | 147525 | 169344
6 | 37:37.70 | 5:06.30 | 169345 | 192324
7 | 42:44.25 | 10:13.62 | 192325 | 238361
8 | 52:58.12 | 4:35.13 | 238362 | 258999
9 | 57:33.25 | 6:19.00 | 259000 | 287424
10 | 63:52.25 | 5:22.00 | 287425 | 311574
11 | 69:14.25 | 4:13.37 | 311575 | 330586
Характеристики диапазона извлечения и сообщения об ошибках
Выбранный диапазон
Имя файла M:\_Music\Classics\Debussy - Fantaisie - Tortelier\Debussy - Fantaisie - Tortelier & The Ulster Orchestra.wav
Пиковый уровень 97.7 %
Скорость извлечения 3.7 X
Качество диапазона 100.0 %
CRC копии 49F414C3
Копирование... OK
Ошибок не произошло
AccurateRip: сводка
Трек 1 : извлечено точно (доверие 6) [84F68593] (AR v2)
Трек 2 : извлечено точно (доверие 6) [E13968CE] (AR v2)
Трек 3 : извлечено точно (доверие 6) [8679BE18] (AR v2)
Трек 4 : извлечено точно (доверие 6) [FF2DB05D] (AR v2)
Трек 5 : извлечено точно (доверие 6) [7484C5B8] (AR v2)
Трек 6 : извлечено точно (доверие 6) [F9A5F5AE] (AR v2)
Трек 7 : извлечено точно (доверие 6) [EE39BD48] (AR v2)
Трек 8 : извлечено точно (доверие 6) [1C4DE58A] (AR v2)
Трек 9 : извлечено точно (доверие 6) [7AF29CA6] (AR v2)
Трек 10 : извлечено точно (доверие 6) [85DBFD11] (AR v2)
Трек 11 : извлечено точно (доверие 6) [FE43FE4A] (AR v2)
Все треки извлечены точно
Конец отчёта
==== Контрольная сумма отчёта 7A1813A2518238EA32879A10F8CB8191A7A2030DED53C7DA37A8C6A0C44B3F7F ====

Содержание индексной карты (.CUE)

REM GENRE "Classical French"
REM DATE 1995
REM DISCID 9711370B
REM COMMENT "ExactAudioCopy v1.0b3"
PERFORMER "Tortelier & The Ulster Orchestra"
TITLE "Debussy Fantaisie"
FILE "Debussy - Fantaisie - Tortelier & The Ulster Orchestra.flac" WAVE
TRACK 01 AUDIO
TITLE "Fantaisie for Piano & Orchestra - 1 Andante ma non troppo - Allegro..."
PERFORMER "Debussy"
INDEX 01 00:00:00
TRACK 02 AUDIO
TITLE "Fantaisie for Piano & Orchestra - 2 Lento e molte espressivo -"
PERFORMER "Debussy"
INDEX 00 08:29:25
INDEX 01 08:32:50
TRACK 03 AUDIO
TITLE "Fantaisie for Piano & Orchestra - 3 Allegro molto"
PERFORMER "Debussy"
INDEX 01 16:44:30
TRACK 04 AUDIO
TITLE "Premiere rapsodie pour orchestre et clarinette L.116"
PERFORMER "Debussy"
INDEX 00 24:54:25
INDEX 01 24:59:50
TRACK 05 AUDIO
TITLE "Danse sacree L.103 - Tres modere"
PERFORMER "Debussy"
INDEX 00 32:37:25
INDEX 01 32:47:00
TRACK 06 AUDIO
TITLE "Danse profane L.103 - Modere"
PERFORMER "Debussy"
INDEX 01 37:37:70
TRACK 07 AUDIO
TITLE "Deuxieme rapsodie pour orchestre et saxophone L.98"
PERFORMER "Debussy"
INDEX 00 42:36:25
INDEX 01 42:44:25
TRACK 08 AUDIO
TITLE "Sarabande L.95 - 2"
PERFORMER "Debussy"
INDEX 00 52:53:25
INDEX 01 52:58:12
TRACK 09 AUDIO
TITLE "L'isle joyeuse L.106"
PERFORMER "Debussy"
INDEX 00 57:27:25
INDEX 01 57:33:25
TRACK 10 AUDIO
TITLE "La plus que lente L. 121"
PERFORMER "Debussy"
INDEX 00 63:45:12
INDEX 01 63:52:25
TRACK 11 AUDIO
TITLE "Suite Bergamasque - Clair de lune"
PERFORMER "Debussy"
INDEX 00 69:10:25
INDEX 01 69:14:25



Показать сообщения:    

Текущее время: 05-Дек 03:25

Часовой пояс: UTC + 3


Вы не можете начинать темы
Вы не можете отвечать на сообщения
Вы не можете редактировать свои сообщения
Вы не можете удалять свои сообщения
Вы не можете голосовать в опросах
Вы не можете прикреплять файлы к сообщениям
Вы не можете скачивать файлы