(Classical, Orchestral) Satie - Gymnopedies, Parade, La Belle Excentrique, Le piege de Meduse, etc. (L'Orchestre de Satie) {Yutaka Sado, Orchestre des Concerts Lamoureux} - 2001, FLAC (tracks+.cue), lossless


 

[Цитировать]

Yutaka Sado & Orchestre des Concerts Lamoureux - L'Orchestre de Satie
Жанр: Classical, Orchestral
Страна-производитель диска: Япония
Год издания диска: 2001
Издатель (лейбл): Erato/Warner Music Japan
Номер по каталогу: WPCS-10690
Аудиокодек: FLAC
Тип рипа: tracks+.cue
Битрейт аудио: lossless
Продолжительность: 1:05:33
Источник (релизер): what.cd
Наличие сканов в содержимом раздачи: да
Треклист:
Erik Satie (1866-1925)
01. Gymnopedie 1 (3:26)
02. Gymnopedie 3 (2:36)
Parade
03. Choral (0:52)
04. Prelude du Rideau rouge - Entree des Managers (0:49)
05. I. Prestidigitateur chinois (3:53)
06. II. Petite Fille Americaine - Ragtime du Paquebot (4:12)
07. III. Acrobates - Supreme Effort des Managers (3:33)
08. Finale (2:22)
09. Suite au "Prelude du Rideau rouge" (0:34)
10. La Diva de l'Empire (2:27)
La Belle Excentrique
11. I. Marche Franco-Lunaire (1:27)
12. Grande Ritournelle (1:52)
13. II. Valse du "Mysterieux Baiser dans l'oeil" (2:32)
14. Grande Ritournelle (1:52)
15. III. Cancan Grand-Mondain (2:00)
16. Poudre d'or (4:59)
17. Un salon (1:49)
3 Petites Pieces montees
18. I. De l'enfance de Pantagruel (1:59)
19. II. Marche de Cocagne (1:25)
20. III. Jeux de Gargantua (1:46)
21. Je te veux (3:36)
22. Les pantins dansent (2:06)
23. Chez un "bistrot" (1:04)
Deux Preludes et une Gnossienne
24. I. Fete donnee par des chevaliers (2:52)
25. II. Premier Prelude du "Nazareen"... (3:29)
26. III. Troisieme Gnossienne (2:04)
Sept toutes petites Danses "Le piege de Meduse"
27. I. Quadrille (0:34)
28. II. Valse (0:48)
29. III. Gigue (0:38)
30. IV. Mazurka (0:38)
31. V. Danse-ballet (0:33)
32. VI. Polka (0:25)
33. VII. Quadrille (0:21)
Исполнители:
Orchestre des Concerts Lamoureux
Yutaka Sado - conductor
Recorded at Salle Wagram, Paris on September 11-14, 2000.

Лог создания рипа

Exact Audio Copy V1.0 beta 3 from 29. August 2011
EAC extraction logfile from 24. May 2014, 23:02
Orchestre Des Concerts Lamoureux, Yutaka Sado / L'Orchestre de Satie
Used drive : TSSTcorpDVD+-RW TS-U633F Adapter: 1 ID: 0
Read mode : Secure
Utilize accurate stream : Yes
Defeat audio cache : Yes
Make use of C2 pointers : No
Read offset correction : 6
Overread into Lead-In and Lead-Out : No
Fill up missing offset samples with silence : Yes
Delete leading and trailing silent blocks : No
Null samples used in CRC calculations : Yes
Used interface : Installed external ASPI interface
Gap handling : Appended to previous track
Used output format : User Defined Encoder
Selected bitrate : 1024 kBit/s
Quality : High
Add ID3 tag : No
Command line compressor : C:\Program Files\Exact Audio Copy\Flac\flac.exe
Additional command line options : -8 -V -T "ARTIST=%artist%" -T "TITLE=%title%" -T "ALBUM=%albumtitle%" -T "DATE=%year%" -T "TRACKNUMBER=%tracknr%" -T "GENRE=%genre%" -T "PERFORMER=%albuminterpret%" -T "COMPOSER=%composer%" %haslyrics%--tag-from-file=LYRICS="%lyricsfile%"%haslyrics% -T "ALBUMARTIST=%albumartist%" -T "DISCNUMBER=%cdnumber%" -T "TOTALDISCS=%totalcds%" -T "TOTALTRACKS=%numtracks%" -T "COMMENT=%comment%" %source% -o %dest%
TOC of the extracted CD
Track | Start | Length | Start sector | End sector
---------------------------------------------------------
1 | 0:00.00 | 3:25.72 | 0 | 15446
2 | 3:25.72 | 2:36.08 | 15447 | 27154
3 | 6:02.05 | 0:51.70 | 27155 | 31049
4 | 6:54.00 | 0:49.02 | 31050 | 34726
5 | 7:43.02 | 3:53.13 | 34727 | 52214
6 | 11:36.15 | 4:12.17 | 52215 | 71131
7 | 15:48.32 | 3:32.68 | 71132 | 87099
8 | 19:21.25 | 2:21.50 | 87100 | 97724
9 | 21:43.00 | 0:33.70 | 97725 | 100269
10 | 22:16.70 | 2:26.55 | 100270 | 111274
11 | 24:43.50 | 1:27.32 | 111275 | 117831
12 | 26:11.07 | 1:51.70 | 117832 | 126226
13 | 28:03.02 | 2:31.38 | 126227 | 137589
14 | 30:34.40 | 1:51.72 | 137590 | 145986
15 | 32:26.37 | 2:00.20 | 145987 | 155006
16 | 34:26.57 | 4:58.68 | 155007 | 177424
17 | 39:25.50 | 1:49.15 | 177425 | 185614
18 | 41:14.65 | 1:58.52 | 185615 | 194516
19 | 43:13.42 | 1:25.05 | 194517 | 200896
20 | 44:38.47 | 1:46.08 | 200897 | 208854
21 | 46:24.55 | 3:36.10 | 208855 | 225064
22 | 50:00.65 | 2:05.42 | 225065 | 234481
23 | 52:06.32 | 1:03.43 | 234482 | 239249
24 | 53:10.00 | 2:51.67 | 239250 | 252141
25 | 56:01.67 | 3:28.45 | 252142 | 267786
26 | 59:30.37 | 2:04.35 | 267787 | 277121
27 | 61:34.72 | 0:34.00 | 277122 | 279671
28 | 62:08.72 | 0:48.20 | 279672 | 283291
29 | 62:57.17 | 0:38.13 | 283292 | 286154
30 | 63:35.30 | 0:37.42 | 286155 | 288971
31 | 64:12.72 | 0:33.03 | 288972 | 291449
32 | 64:46.00 | 0:25.25 | 291450 | 293349
33 | 65:11.25 | 0:21.20 | 293350 | 294944
Track 1
Filename H:\flac\Satie\01 - Gymnopedie 1.wav
Pre-gap length 0:00:02.00
Peak level 29.8 %
Extraction speed 2.8 X
Track quality 100.0 %
Test CRC 27320E10
Copy CRC 27320E10
Accurately ripped (confidence 1) [93CB6B60] (AR v2)
Copy OK
Track 2
Filename H:\flac\Satie\02 - Gymnopedie 2.wav
Pre-gap length 0:00:02.76
Peak level 26.6 %
Extraction speed 2.9 X
Track quality 100.0 %
Test CRC 13CD1EE3
Copy CRC 13CD1EE3
Accurately ripped (confidence 1) [5CADEA67] (AR v2)
Copy OK
Track 3
Filename H:\flac\Satie\03 - Parade - Choral.wav
Pre-gap length 0:00:07.13
Peak level 81.8 %
Extraction speed 2.2 X
Track quality 100.0 %
Test CRC 9973A59D
Copy CRC 9973A59D
Accurately ripped (confidence 1) [983490B6] (AR v2)
Copy OK
Track 4
Filename H:\flac\Satie\04 - Parade - Prelude du Rideau rouge - Entree des Managers.wav
Peak level 73.3 %
Extraction speed 2.1 X
Track quality 100.0 %
Test CRC 2E250F8D
Copy CRC 2E250F8D
Accurately ripped (confidence 1) [6B5C633C] (AR v2)
Copy OK
Track 5
Filename H:\flac\Satie\05 - Parade - 1. Prestidigitateur chinois.wav
Peak level 96.0 %
Extraction speed 3.4 X
Track quality 100.0 %
Test CRC 2CA52EF1
Copy CRC 2CA52EF1
Accurately ripped (confidence 1) [6E7D6426] (AR v2)
Copy OK
Track 6
Filename H:\flac\Satie\06 - Parade - 2. Petite Fille Americaine - Ragtime du Paquebot.wav
Peak level 95.7 %
Extraction speed 3.7 X
Track quality 100.0 %
Test CRC 214756A4
Copy CRC 214756A4
Accurately ripped (confidence 1) [3CA178C8] (AR v2)
Copy OK
Track 7
Filename H:\flac\Satie\07 - Parade - 3. Acrobates - Supreme Effort des Managers.wav
Peak level 95.8 %
Extraction speed 3.8 X
Track quality 100.0 %
Test CRC 73D9BA02
Copy CRC 73D9BA02
Accurately ripped (confidence 1) [15BDE878] (AR v2)
Copy OK
Track 8
Filename H:\flac\Satie\08 - Parade - Finale.wav
Peak level 96.0 %
Extraction speed 3.7 X
Track quality 100.0 %
Test CRC 9B7734A5
Copy CRC 9B7734A5
Accurately ripped (confidence 1) [16283723] (AR v2)
Copy OK
Track 9
Filename H:\flac\Satie\09 - Parade - Suite au ''Prelude du Rideau rouge''.wav
Peak level 80.0 %
Extraction speed 2.2 X
Track quality 100.0 %
Test CRC 04A6CF31
Copy CRC 04A6CF31
Accurately ripped (confidence 1) [6A185BBA] (AR v2)
Copy OK
Track 10
Filename H:\flac\Satie\10 - La Diva de l'Empire.wav
Pre-gap length 0:00:01.89
Peak level 51.9 %
Extraction speed 2.8 X
Track quality 99.9 %
Test CRC 0B693F33
Copy CRC 0B693F33
Accurately ripped (confidence 1) [A29E9103] (AR v2)
Copy OK
Track 11
Filename H:\flac\Satie\11 - La Belle Excentrique - 1. Marche Franco-Lunaire.wav
Pre-gap length 0:00:01.49
Peak level 95.6 %
Extraction speed 3.3 X
Track quality 100.0 %
Test CRC 2ABE4656
Copy CRC 2ABE4656
Accurately ripped (confidence 1) [4BE12A1D] (AR v2)
Copy OK
Track 12
Filename H:\flac\Satie\12 - La Belle Excentrique - Grande Ritournelle.wav
Peak level 95.6 %
Extraction speed 3.7 X
Track quality 100.0 %
Test CRC 024043A0
Copy CRC 024043A0
Accurately ripped (confidence 1) [D879E6D2] (AR v2)
Copy OK
Track 13
Filename H:\flac\Satie\13 - La Belle Excentrique - 2. Valse du ''Mysterieux Baiser dans l'oeil''.wav
Peak level 77.2 %
Extraction speed 4.0 X
Track quality 100.0 %
Test CRC 96D6B22E
Copy CRC 96D6B22E
Accurately ripped (confidence 1) [449E66B4] (AR v2)
Copy OK
Track 14
Filename H:\flac\Satie\14 - La Belle Excentrique - Grande Ritournelle.wav
Peak level 95.6 %
Extraction speed 3.8 X
Track quality 100.0 %
Test CRC 0AE59403
Copy CRC 0AE59403
Accurately ripped (confidence 1) [A0E12B37] (AR v2)
Copy OK
Track 15
Filename H:\flac\Satie\15 - La Belle Excentrique - 3. Cancan Grand-Mondain.wav
Peak level 92.3 %
Extraction speed 3.9 X
Track quality 100.0 %
Test CRC DA4D24F0
Copy CRC DA4D24F0
Accurately ripped (confidence 1) [95665425] (AR v2)
Copy OK
Track 16
Filename H:\flac\Satie\16 - Poudre d'or.wav
Pre-gap length 0:00:01.20
Peak level 84.0 %
Extraction speed 4.8 X
Track quality 100.0 %
Test CRC 358AEE08
Copy CRC 358AEE08
Accurately ripped (confidence 1) [8C201FBF] (AR v2)
Copy OK
Track 17
Filename H:\flac\Satie\17 - Un salon.wav
Pre-gap length 0:00:00.82
Peak level 47.9 %
Extraction speed 2.8 X
Track quality 99.9 %
Test CRC 8A679651
Copy CRC 8A679651
Accurately ripped (confidence 1) [C6A5525E] (AR v2)
Copy OK
Track 18
Filename H:\flac\Satie\18 - 3 Petites Pieces montees - 1. De l'enfance de Pantagruel.wav
Peak level 16.1 %
Extraction speed 4.2 X
Track quality 100.0 %
Test CRC 0A03F5AA
Copy CRC 0A03F5AA
Accurately ripped (confidence 1) [8A35D935] (AR v2)
Copy OK
Track 19
Filename H:\flac\Satie\19 - 3 Petites Pieces montees - 2. Marche de Cocagne.wav
Pre-gap length 0:00:00.89
Peak level 56.2 %
Extraction speed 3.9 X
Track quality 100.0 %
Test CRC 7F38A5D6
Copy CRC 7F38A5D6
Accurately ripped (confidence 1) [A36A8999] (AR v2)
Copy OK
Track 20
Filename H:\flac\Satie\20 - 3 Petites Pieces montees - 3. Jeux de Gargantua.wav
Pre-gap length 0:00:00.93
Peak level 95.8 %
Extraction speed 4.3 X
Track quality 100.0 %
Test CRC FBA4E15F
Copy CRC FBA4E15F
Accurately ripped (confidence 1) [03FC05C0] (AR v2)
Copy OK
Track 21
Filename H:\flac\Satie\21 - Je te veux.wav
Pre-gap length 0:00:02.00
Peak level 78.3 %
Extraction speed 4.0 X
Track quality 99.9 %
Test CRC ED1F0D0F
Copy CRC ED1F0D0F
Accurately ripped (confidence 1) [0D47C99C] (AR v2)
Copy OK
Track 22
Filename H:\flac\Satie\22 - Les pantins dansent.wav
Pre-gap length 0:00:00.42
Peak level 15.6 %
Extraction speed 4.6 X
Track quality 100.0 %
Test CRC DC33A2EC
Copy CRC DC33A2EC
Accurately ripped (confidence 1) [1C9C1743] (AR v2)
Copy OK
Track 23
Filename H:\flac\Satie\23 - Chez un ''bistrot''.wav
Pre-gap length 0:00:01.93
Peak level 49.9 %
Extraction speed 3.8 X
Track quality 100.0 %
Test CRC 0625E14D
Copy CRC 0625E14D
Accurately ripped (confidence 1) [339600A7] (AR v2)
Copy OK
Track 24
Filename H:\flac\Satie\24 - Deux Preludes et une Gnossienne - 1. Fete donneepar des chevaliers....wav
Pre-gap length 0:00:00.80
Peak level 32.7 %
Extraction speed 5.1 X
Track quality 100.0 %
Test CRC 27523040
Copy CRC 27523040
Accurately ripped (confidence 1) [324156C8] (AR v2)
Copy OK
Track 25
Filename H:\flac\Satie\25 - Deux Preludes et une Gnossienne - 2. Premier de ''Nazareen''....wav
Peak level 36.4 %
Extraction speed 5.3 X
Track quality 100.0 %
Test CRC 9B7BF735
Copy CRC 9B7BF735
Accurately ripped (confidence 1) [680C7CEB] (AR v2)
Copy OK
Track 26
Filename H:\flac\Satie\26 - Deux Preludes et une Gnossienne - 3. Troisieme Gnossienne.wav
Peak level 29.7 %
Extraction speed 3.5 X
Track quality 99.9 %
Test CRC 022FF318
Copy CRC 022FF318
Accurately ripped (confidence 1) [BCAC3167] (AR v2)
Copy OK
Track 27
Filename H:\flac\Satie\27 - Sept toutes petites Danses ''Le piege de Meduse'' - 1. Quadrille.wav
Pre-gap length 0:00:00.76
Peak level 31.0 %
Extraction speed 2.9 X
Track quality 100.0 %
Test CRC 1ECCA39E
Copy CRC 1ECCA39E
Accurately ripped (confidence 1) [F16C0F70] (AR v2)
Copy OK
Track 28
Filename H:\flac\Satie\28 - Sept toutes petites Danses ''Le piege de Meduse'' - 2. Valse.wav
Pre-gap length 0:00:00.01
Peak level 95.6 %
Extraction speed 3.4 X
Track quality 100.0 %
Test CRC 20EBAB77
Copy CRC 20EBAB77
Accurately ripped (confidence 1) [F29FE2FC] (AR v2)
Copy OK
Track 29
Filename H:\flac\Satie\29 - Sept toutes petites Danses ''Le piege de Meduse'' - 3. Gigue.wav
Peak level 87.8 %
Extraction speed 1.6 X
Track quality 99.7 %
Test CRC 85B2235C
Copy CRC 85B2235C
Accurately ripped (confidence 1) [3889AB88] (AR v2)
Copy OK
Track 30
Filename H:\flac\Satie\30 - Sept toutes petites Danses ''Le piege de Meduse'' - 4. Mazurka.wav
Peak level 40.3 %
Extraction speed 3.2 X
Track quality 100.0 %
Test CRC F424BB58
Copy CRC F424BB58
Accurately ripped (confidence 1) [39EF9D33] (AR v2)
Copy OK
Track 31
Filename H:\flac\Satie\31 - Sept toutes petites Danses ''Le piege de Meduse'' - 5. Danse-ballet.wav
Peak level 64.3 %
Extraction speed 3.0 X
Track quality 100.0 %
Test CRC 5468C736
Copy CRC 5468C736
Accurately ripped (confidence 1) [72466847] (AR v2)
Copy OK
Track 32
Filename H:\flac\Satie\32 - Sept toutes petites Danses ''Le piege de Meduse'' - 6. Polka.wav
Peak level 72.3 %
Extraction speed 2.5 X
Track quality 100.0 %
Test CRC 15A413D6
Copy CRC 15A413D6
Accurately ripped (confidence 1) [37E01F5E] (AR v2)
Copy OK
Track 33
Filename H:\flac\Satie\33 - Sept toutes petites Danses ''Le piege de Meduse'' - 7. Quadrille.wav
Peak level 95.7 %
Extraction speed 1.1 X
Track quality 99.4 %
Test CRC 774F2F91
Copy CRC 774F2F91
Accurately ripped (confidence 1) [E70D9DA5] (AR v2)
Copy OK
All tracks accurately ripped
No errors occurred
End of status report
==== Log checksum 72B0054D3AD9CB226FE4CE06DEDB2F616186DAC5A15CCEF2135E6F10777999F1 ====

Содержание индексной карты (.CUE)

REM GENRE Classical
REM DATE 2001
REM DISCID 1E0F5C21
REM COMMENT "ExactAudioCopy v1.0b3"
CATALOG 4943674024872
PERFORMER "Yutaka Sado & Orchestre des Concerts Lamoureux"
TITLE "L'Orchestre de Satie"
FILE "01 - Gymnopedie 1.wav" WAVE
TRACK 01 AUDIO
TITLE "Gymnopedie 1"
PERFORMER "Yutaka Sado & Orchestre des Concerts Lamoureux"
INDEX 01 00:00:00
TRACK 02 AUDIO
TITLE "Gymnopedie 3"
PERFORMER "Yutaka Sado & Orchestre des Concerts Lamoureux"
INDEX 00 03:23:15
FILE "02 - Gymnopedie 3.wav" WAVE
INDEX 01 00:00:00
TRACK 03 AUDIO
TITLE "Parade: Choral"
PERFORMER "Yutaka Sado & Orchestre des Concerts Lamoureux"
INDEX 00 02:28:73
FILE "03 - Parade- Choral.wav" WAVE
INDEX 01 00:00:00
FILE "04 - Parade- Prelude du Rideau rouge - Entree des Managers.wav" WAVE
TRACK 04 AUDIO
TITLE "Parade: Prelude du Rideau rouge - Entree des Managers"
PERFORMER "Yutaka Sado & Orchestre des Concerts Lamoureux"
INDEX 01 00:00:00
FILE "05 - Parade- I. Prestidigitateur chinois.wav" WAVE
TRACK 05 AUDIO
TITLE "Parade: I. Prestidigitateur chinois"
PERFORMER "Yutaka Sado & Orchestre des Concerts Lamoureux"
INDEX 01 00:00:00
FILE "06 - Parade- II. Petite Fille Americaine - Ragtime du Paquebot.wav" WAVE
TRACK 06 AUDIO
TITLE "Parade: II. Petite Fille Americaine - Ragtime du Paquebot"
PERFORMER "Yutaka Sado & Orchestre des Concerts Lamoureux"
INDEX 01 00:00:00
FILE "07 - Parade- III. Acrobates - Supreme Effort des Managers.wav" WAVE
TRACK 07 AUDIO
TITLE "Parade: III. Acrobates - Supreme Effort des Managers"
PERFORMER "Yutaka Sado & Orchestre des Concerts Lamoureux"
INDEX 01 00:00:00
FILE "08 - Parade- Finale.wav" WAVE
TRACK 08 AUDIO
TITLE "Parade: Finale"
PERFORMER "Yutaka Sado & Orchestre des Concerts Lamoureux"
INDEX 01 00:00:00
FILE "09 - Parade- Suite au 'Prelude du Rideau rouge'.wav" WAVE
TRACK 09 AUDIO
TITLE "Parade: Suite au 'Prelude du Rideau rouge'"
PERFORMER "Yutaka Sado & Orchestre des Concerts Lamoureux"
INDEX 01 00:00:00
TRACK 10 AUDIO
TITLE "La Diva de l'Empire"
PERFORMER "Yutaka Sado & Orchestre des Concerts Lamoureux"
INDEX 00 00:32:03
FILE "10 - La Diva de l'Empire.wav" WAVE
INDEX 01 00:00:00
TRACK 11 AUDIO
TITLE "La Belle Excentrique: I. Marche Franco-Lunaire"
PERFORMER "Yutaka Sado & Orchestre des Concerts Lamoureux"
INDEX 00 02:25:18
FILE "11 - La Belle Excentrique- I. Marche Franco-Lunaire.wav" WAVE
INDEX 01 00:00:00
FILE "12 - La Belle Excentrique- Grande Ritournelle.wav" WAVE
TRACK 12 AUDIO
TITLE "La Belle Excentrique: Grande Ritournelle"
PERFORMER "Yutaka Sado & Orchestre des Concerts Lamoureux"
INDEX 01 00:00:00
FILE "13 - La Belle Excentrique- II. Valse du 'Mysterieux Baiser dans l'oeil'.wav" WAVE
TRACK 13 AUDIO
TITLE "La Belle Excentrique: II. Valse du 'Mysterieux Baiser dans l'oeil'"
PERFORMER "Yutaka Sado & Orchestre des Concerts Lamoureux"
INDEX 01 00:00:00
FILE "14 - La Belle Excentrique- Grande Ritournelle.wav" WAVE
TRACK 14 AUDIO
TITLE "La Belle Excentrique: Grande Ritournelle"
PERFORMER "Yutaka Sado & Orchestre des Concerts Lamoureux"
INDEX 01 00:00:00
FILE "15 - La Belle Excentrique- III. Cancan Grand-Mondain.wav" WAVE
TRACK 15 AUDIO
TITLE "La Belle Excentrique: III. Cancan Grand-Mondain"
PERFORMER "Yutaka Sado & Orchestre des Concerts Lamoureux"
INDEX 01 00:00:00
TRACK 16 AUDIO
TITLE "Poudre d'or"
PERFORMER "Yutaka Sado & Orchestre des Concerts Lamoureux"
INDEX 00 01:59:05
FILE "16 - Poudre d'or.wav" WAVE
INDEX 01 00:00:00
TRACK 17 AUDIO
TITLE "Un salon"
PERFORMER "Yutaka Sado & Orchestre des Concerts Lamoureux"
INDEX 00 04:58:06
FILE "17 - Un salon.wav" WAVE
INDEX 01 00:00:00
FILE "18 - 3 Petites Pieces montees- I. De l'enfance de Pantagruel.wav" WAVE
TRACK 18 AUDIO
TITLE "3 Petites Pieces montees: I. De l'enfance de Pantagruel"
PERFORMER "Yutaka Sado & Orchestre des Concerts Lamoureux"
INDEX 01 00:00:00
TRACK 19 AUDIO
TITLE "3 Petites Pieces montees: II. Marche de Cocagne"
PERFORMER "Yutaka Sado & Orchestre des Concerts Lamoureux"
INDEX 00 01:57:60
FILE "19 - 3 Petites Pieces montees- II. Marche de Cocagne.wav" WAVE
INDEX 01 00:00:00
TRACK 20 AUDIO
TITLE "3 Petites Pieces montees: III. Jeux de Gargantua"
PERFORMER "Yutaka Sado & Orchestre des Concerts Lamoureux"
INDEX 00 01:24:10
FILE "20 - 3 Petites Pieces montees- III. Jeux de Gargantua.wav" WAVE
INDEX 01 00:00:00
TRACK 21 AUDIO
TITLE "Je te veux"
PERFORMER "Yutaka Sado & Orchestre des Concerts Lamoureux"
INDEX 00 01:44:08
FILE "21 - Je te veux.wav" WAVE
INDEX 01 00:00:00
TRACK 22 AUDIO
TITLE "Les pantins dansent"
PERFORMER "Yutaka Sado & Orchestre des Concerts Lamoureux"
INDEX 00 03:35:53
FILE "22 - Les pantins dansent.wav" WAVE
INDEX 01 00:00:00
TRACK 23 AUDIO
TITLE "Chez un 'bistrot'"
PERFORMER "Yutaka Sado & Orchestre des Concerts Lamoureux"
INDEX 00 02:03:47
FILE "23 - Chez un 'bistrot'.wav" WAVE
INDEX 01 00:00:00
TRACK 24 AUDIO
TITLE "Deux Preludes et une Gnossienne: I. Fete donnee par des chevaliers"
PERFORMER "Yutaka Sado & Orchestre des Concerts Lamoureux"
INDEX 00 01:02:58
FILE "24 - Deux Preludes et une Gnossienne- I. Fete donnee par des chevaliers.wav" WAVE
INDEX 01 00:00:00
FILE "25 - Deux Preludes et une Gnossienne- II. Premier Prelude du 'Nazareen'.wav" WAVE
TRACK 25 AUDIO
TITLE "Deux Preludes et une Gnossienne: II. Premier Prelude du 'Nazareen'"
PERFORMER "Yutaka Sado & Orchestre des Concerts Lamoureux"
INDEX 01 00:00:00
FILE "26 - Deux Preludes et une Gnossienne- III. Troisieme Gnossienne.wav" WAVE
TRACK 26 AUDIO
TITLE "Deux Preludes et une Gnossienne: III. Troisieme Gnossienne"
PERFORMER "Yutaka Sado & Orchestre des Concerts Lamoureux"
INDEX 01 00:00:00
TRACK 27 AUDIO
TITLE "Sept toutes petites Danses 'Le piege de Meduse': I. Quadrille"
PERFORMER "Yutaka Sado & Orchestre des Concerts Lamoureux"
INDEX 00 02:03:53
FILE "27 - Sept toutes petites Danses 'Le piege de Meduse'- I. Quadrille.wav" WAVE
INDEX 01 00:00:00
TRACK 28 AUDIO
TITLE "Sept toutes petites Danses 'Le piege de Meduse': II. Valse"
PERFORMER "Yutaka Sado & Orchestre des Concerts Lamoureux"
INDEX 00 00:33:74
FILE "28 - Sept toutes petites Danses 'Le piege de Meduse'- II. Valse.wav" WAVE
INDEX 01 00:00:00
FILE "29 - Sept toutes petites Danses 'Le piege de Meduse'- III. Gigue.wav" WAVE
TRACK 29 AUDIO
TITLE "Sept toutes petites Danses 'Le piege de Meduse': III. Gigue"
PERFORMER "Yutaka Sado & Orchestre des Concerts Lamoureux"
INDEX 01 00:00:00
FILE "30 - Sept toutes petites Danses 'Le piege de Meduse'- IV. Mazurka.wav" WAVE
TRACK 30 AUDIO
TITLE "Sept toutes petites Danses 'Le piege de Meduse': IV. Mazurka"
PERFORMER "Yutaka Sado & Orchestre des Concerts Lamoureux"
INDEX 01 00:00:00
FILE "31 - Sept toutes petites Danses 'Le piege de Meduse'- V. Danse-ballet.wav" WAVE
TRACK 31 AUDIO
TITLE "Sept toutes petites Danses 'Le piege de Meduse': V. Danse-ballet"
PERFORMER "Yutaka Sado & Orchestre des Concerts Lamoureux"
INDEX 01 00:00:00
FILE "32 - Sept toutes petites Danses 'Le piege de Meduse'- VI. Polka.wav" WAVE
TRACK 32 AUDIO
TITLE "Sept toutes petites Danses 'Le piege de Meduse': VI. Polka"
PERFORMER "Yutaka Sado & Orchestre des Concerts Lamoureux"
INDEX 01 00:00:00
FILE "33 - Sept toutes petites Danses 'Le piege de Meduse'- VII. Quadrille.wav" WAVE
TRACK 33 AUDIO
TITLE "Sept toutes petites Danses 'Le piege de Meduse': VII. Quadrille"
PERFORMER "Yutaka Sado & Orchestre des Concerts Lamoureux"
INDEX 01 00:00:00

Отчет CUETools

[CUETools log; Date: 09.06.2015 0:36:47; Version: 2.1.5]
[CTDB TOCID: zDkcnQAeHYDv8AC_FO0Bu30SSEg-] found.
Track | CTDB Status
1 | (6/7) Accurately ripped
2 | (6/7) Accurately ripped
3 | (6/7) Accurately ripped
4 | (6/7) Accurately ripped
5 | (6/7) Accurately ripped
6 | (6/7) Accurately ripped
7 | (6/7) Accurately ripped
8 | (6/7) Accurately ripped
9 | (6/7) Accurately ripped
10 | (6/7) Accurately ripped
11 | (6/7) Accurately ripped
12 | (6/7) Accurately ripped
13 | (6/7) Accurately ripped
14 | (6/7) Accurately ripped
15 | (6/7) Accurately ripped
16 | (6/7) Accurately ripped
17 | (6/7) Accurately ripped
18 | (6/7) Accurately ripped
19 | (6/7) Accurately ripped
20 | (6/7) Accurately ripped
21 | (6/7) Accurately ripped
22 | (6/7) Accurately ripped
23 | (6/7) Accurately ripped
24 | (6/7) Accurately ripped
25 | (6/7) Accurately ripped
26 | (6/7) Accurately ripped
27 | (6/7) Accurately ripped
28 | (6/7) Accurately ripped
29 | (6/7) Accurately ripped
30 | (6/7) Accurately ripped
31 | (6/7) Accurately ripped
32 | (6/7) Accurately ripped
33 | (6/7) Accurately ripped
[AccurateRip ID: 00585ff4-07e72fc0-1e0f5c21] found.
Track [ CRC | V2 ] Status
01 [06c01628|93cb6b60] (0+2/5) Accurately ripped
02 [704ecad9|5cadea67] (0+2/5) Accurately ripped
03 [ac89dd29|983490b6] (0+2/5) Accurately ripped
04 [e23ab5a7|6b5c633c] (0+2/5) Accurately ripped
05 [418f9e57|6e7d6426] (0+2/5) Accurately ripped
06 [641f7d91|3ca178c8] (0+2/5) Accurately ripped
07 [57554e67|15bde878] (0+2/5) Accurately ripped
08 [e86796d9|16283723] (0+2/5) Accurately ripped
09 [ea5a728e|6a185bba] (0+2/5) Accurately ripped
10 [cd439b8c|a29e9103] (0+2/5) Accurately ripped
11 [978338e0|4be12a1d] (0+2/5) Accurately ripped
12 [4577f4f1|d879e6d2] (0+2/5) Accurately ripped
13 [ee6542ef|449e66b4] (0+2/5) Accurately ripped
14 [541281f1|a0e12b37] (0+2/5) Accurately ripped
15 [b9358682|95665425] (0+2/5) Accurately ripped
16 [38e12f32|8c201fbf] (0+2/5) Accurately ripped
17 [2a0ca44e|c6a5525e] (0+2/5) Accurately ripped
18 [acd5a47a|8a35d935] (0+2/5) Accurately ripped
19 [fccf844e|a36a8999] (0+0/3) No match
20 [a4d6fe5d|03fc05c0] (0+2/5) Accurately ripped
21 [41859b82|0d47c99c] (0+2/5) Accurately ripped
22 [b2368671|1c9c1743] (0+2/5) Accurately ripped
23 [bad49436|339600a7] (0+2/5) Accurately ripped
24 [f7ed0523|324156c8] (0+2/5) Accurately ripped
25 [22a09352|680c7ceb] (0+2/5) Accurately ripped
26 [420c59b1|bcac3167] (0+2/5) Accurately ripped
27 [0f2d13ff|f16c0f70] (0+2/5) Accurately ripped
28 [c4b80a60|f29fe2fc] (0+2/5) Accurately ripped
29 [1928eb8a|3889ab88] (0+2/5) Accurately ripped
30 [dcfd9a54|39ef9d33] (0+2/5) Accurately ripped
31 [ed65e96b|72466847] (0+2/5) Accurately ripped
32 [b9e50718|37e01f5e] (0+2/5) Accurately ripped
33 [7a01a4b2|e70d9da5] (0+2/5) Accurately ripped
Offsetted by 900:
01 [67c653b7] (0/5) No match (V2 was not tested)
02 [fce1efbe] (0/5) No match (V2 was not tested)
03 [b8f1c007] (0/5) No match (V2 was not tested)
04 [fcd0b9a5] (0/5) No match (V2 was not tested)
05 [edbbe09b] (0/5) No match (V2 was not tested)
06 [9a2a80d2] (0/5) No match (V2 was not tested)
07 [64a83d76] (0/5) No match (V2 was not tested)
08 [22be53b3] (0/5) No match (V2 was not tested)
09 [9e323f77] (0/5) No match (V2 was not tested)
10 [f9fc5c1d] (0/5) No match (V2 was not tested)
11 [0c8c884f] (0/5) No match (V2 was not tested)
12 [32541f2f] (0/5) No match (V2 was not tested)
13 [e1473752] (0/5) No match (V2 was not tested)
14 [d4d1cc41] (0/5) No match (V2 was not tested)
15 [f2ac590a] (0/5) No match (V2 was not tested)
16 [9f2c5fac] (0/5) No match (V2 was not tested)
17 [bd6fbae0] (0/5) No match (V2 was not tested)
18 [da80850e] (0/5) No match (V2 was not tested)
19 [51f12cd4] (0/3) No match (V2 was not tested)
20 [959b38d6] (0/5) No match (V2 was not tested)
21 [3838063a] (0/5) No match (V2 was not tested)
22 [6ff4a92c] (0/5) No match (V2 was not tested)
23 [109e90ec] (0/5) No match (V2 was not tested)
24 [224b86d1] (0/5) No match (V2 was not tested)
25 [9bcc5603] (0/5) No match (V2 was not tested)
26 [dc06da40] (0/5) No match (V2 was not tested)
27 [057b20e1] (0/5) No match (V2 was not tested)
28 [f99028e5] (0/5) No match (V2 was not tested)
29 [e1757716] (0/5) No match (V2 was not tested)
30 [aed27647] (0/5) No match (V2 was not tested)
31 [d75ff06b] (0/5) No match (V2 was not tested)
32 [60354513] (0/5) No match (V2 was not tested)
33 [da6a5073] (0/5) No match (V2 was not tested)
Track Peak [ CRC32 ] [W/O NULL] [ LOG ]
-- 96,0 [66DCF573] [C4F69203]
01 29,8 [27320E10] [8DDF2F82] CRC32
02 26,6 [13CD1EE3] [A15D22D2] CRC32
03 81,8 [9973A59D] [88F3BE11] CRC32
04 73,3 [2E250F8D] [65F948A7] CRC32
05 96,0 [2CA52EF1] [AD27F307] CRC32
06 95,7 [214756A4] [3DB3BA6D] CRC32
07 95,8 [73D9BA02] [AF98CEAA] CRC32
08 96,0 [9B7734A5] [82E2B6B6] CRC32
09 80,0 [04A6CF31] [0D091E52] CRC32
10 51,9 [0B693F33] [0CC6780C] CRC32
11 95,6 [2ABE4656] [AB811585] CRC32
12 95,6 [024043A0] [89DB0484] CRC32
13 77,2 [96D6B22E] [E7146450] CRC32
14 95,6 [0AE59403] [EE652CCB] CRC32
15 92,3 [DA4D24F0] [B88FF532] CRC32
16 84,0 [358AEE08] [5D82BB60] CRC32
17 47,9 [8A679651] [B623E6B1] CRC32
18 16,1 [0A03F5AA] [0E99D1EA] CRC32
19 56,2 [7F38A5D6] [179C6D71] CRC32
20 95,8 [FBA4E15F] [6BC5733E] CRC32
21 78,3 [ED1F0D0F] [63D960FF] CRC32
22 15,6 [DC33A2EC] [D4233FCF] CRC32
23 49,9 [0625E14D] [D665F265] CRC32
24 32,7 [27523040] [F1A92CAC] CRC32
25 36,4 [9B7BF735] [E106F0EC] CRC32
26 29,7 [022FF318] [58A463EA] CRC32
27 31,0 [1ECCA39E] [0C4234F3] CRC32
28 95,6 [20EBAB77] [B7580724] CRC32
29 87,8 [85B2235C] [F02ED9A3] CRC32
30 40,3 [F424BB58] [BBF97DCC] CRC32
31 64,3 [5468C736] [0C05E767] CRC32
32 72,3 [15A413D6] [47CDB6B6] CRC32
33 95,7 [774F2F91] [3CBB4811] CRC32

Об альбоме (сборнике)

Satie’s humour is too deep to be taken frivolously and I’m happy to say that Yutaka Sado approaches this music with the respect and care it deserves. Phrasing and articulation are scrupulously accurate and the result‚ supported by excellent insert­notes from the great Satie authority Ornella Volta‚ should have been an important disc in every respect.
I say ‘should’ because there has been‚ in my view‚ one crucial misjudgement which impairs the whole enterprise. The idea of a disc containing a wide variety of Satie’s orchestral music seems initially to be an excellent one. The problem is to find a venue suitable for this wide variety. I am no great lover of the acoustics of the Salle Wagram‚ but it does no lasting harm to Parade (which Sado bravely takes at a more or less uniform tempo as the composer wanted‚ even if the pulse is not quite the 76­to­the­minute that’s specified) nor to the atmospheric orchestrations of the two outer Gymnopédies by Debussy and of two Preludes and a Gnossienne by Poulenc. But the cavernous acoustics are far more menacing to the health of those works scored either for petit orchestre or for orchestre de brasserie. In many cases‚ too‚ the string band in these sounds too large to me‚ and altogether the intimacy they need is destroyed. I would also question Sado’s fast tempos in several places. In La belle excentrique his waltz tempo is decidedly brisk and in the ‘Cancan Grand­mondain’ there is surely no time for the dancers’ legs to do a shake as well as a lift?
On the positive side though‚ it’s good to have some of the more unfamiliar Satie on disc‚ such as the waltz suite Poudre d’or of 1902 and the two extracts from Musique d’ameublement of 1920‚ the first with its hilarious Saint­-Saëns quotation. Was Saint­-Saëns’ death the following year the delayed effect of rage‚ I wonder?



Показать сообщения:    

Текущее время: 09-Дек 20:31

Часовой пояс: UTC + 3


Вы не можете начинать темы
Вы не можете отвечать на сообщения
Вы не можете редактировать свои сообщения
Вы не можете удалять свои сообщения
Вы не можете голосовать в опросах
Вы не можете прикреплять файлы к сообщениям
Вы не можете скачивать файлы