(Classical) Handel - Water Music & Fireworks - Le Concert Spirituel, Herve Niquet - 2008, FLAC (image+.cue) lossless


 

[Цитировать]

Handel - Water Music & Fireworks - Le Concert Spirituel, Hervé Niquet
Жанр: Classical
Страна-производитель диска: Spain
Год издания диска: 2008
Издатель (лейбл): Glossa
Номер по каталогу: GCD 921616
Дата записи: 2002
Аудиокодек: FLAC
Тип рипа: image+.cue
Битрейт аудио: lossless
Продолжительность: 64:54
Источник: собственный рип
Наличие сканов в содержимом раздачи: да
Треклист:
Georg Friedrich Haendel
[1]-[9] Water Music. Suite I (HWV 348)
[10]-[14] Water Music. Suite II (HWV 349)
[15]-[18] Water Music. Suite III (HWV 350)
[19]-[24] Music for the Royal Fireworks (HWV 351)
[25] Joyeux Anniversaire (bonus track)
Исполнители:
Le Concert Spirituel
Hervé Niquet
direction

Лог создания рипа

Exact Audio Copy V1.0 beta 3 from 29. August 2011
EAC extraction logfile from 18. January 2015, 16:52
Le Concert Spirituel, Herve Niquet / Handel - Water Music & Fireworks
Used drive : HL-DT-STDVDRAM GU70N Adapter: 0 ID: 0
Read mode : Secure
Utilize accurate stream : Yes
Defeat audio cache : Yes
Make use of C2 pointers : No
Read offset correction : 48
Overread into Lead-In and Lead-Out : No
Fill up missing offset samples with silence : Yes
Delete leading and trailing silent blocks : No
Null samples used in CRC calculations : Yes
Used interface : Native Win32 interface for Win NT & 2000
Used output format : User Defined Encoder
Selected bitrate : 128 kBit/s
Quality : High
Add ID3 tag : No
Command line compressor : C:\Program Files (x86)\Exact Audio Copy\Flac\flac.exe
Additional command line options : -V -8 -T "Date=%year%" -T "Genre=%genre%" %source%
TOC of the extracted CD
Track | Start | Length | Start sector | End sector
---------------------------------------------------------
1 | 0:00.00 | 4:49.14 | 0 | 21688
2 | 4:49.14 | 2:29.45 | 21689 | 32908
3 | 7:18.59 | 1:59.16 | 32909 | 41849
4 | 9:18.00 | 2:30.71 | 41850 | 53170
5 | 11:48.71 | 2:56.25 | 53171 | 66395
6 | 14:45.21 | 2:44.62 | 66396 | 78757
7 | 17:30.08 | 1:53.73 | 78758 | 87305
8 | 19:24.06 | 3:03.47 | 87306 | 101077
9 | 22:27.53 | 3:49.40 | 101078 | 118292
10 | 26:17.18 | 2:09.01 | 118293 | 127968
11 | 28:26.19 | 2:59.54 | 127969 | 141447
12 | 31:25.73 | 1:48.72 | 141448 | 149619
13 | 33:14.70 | 1:49.05 | 149620 | 157799
14 | 35:04.00 | 1:23.47 | 157800 | 164071
15 | 36:27.47 | 3:03.57 | 164072 | 177853
16 | 39:31.29 | 2:30.03 | 177854 | 189106
17 | 42:01.32 | 2:15.40 | 189107 | 199271
18 | 44:16.72 | 1:39.69 | 199272 | 206765
19 | 45:56.66 | 2:14.49 | 206766 | 216864
20 | 48:11.40 | 5:08.13 | 216865 | 239977
21 | 53:19.53 | 2:01.44 | 239978 | 249096
22 | 55:21.22 | 1:40.57 | 249097 | 256653
23 | 57:02.04 | 2:07.04 | 256654 | 266182
24 | 59:09.08 | 3:07.64 | 266183 | 280271
25 | 62:16.72 | 2:47.13 | 280272 | 292809
Range status and errors
Selected range
Filename C:\temp\GCDSA 921616 Handel - Water Music & Fireworks (Le Concert Spirituel, Niquet)\Handel - Water Music & Fireworks.wav
Peak level 96.3 %
Extraction speed 2.2 X
Range quality 100.0 %
Test CRC 5CEAB19F
Copy CRC 5CEAB19F
Copy OK
No errors occurred
AccurateRip summary
Track 1 accurately ripped (confidence 2) [5919EBD5] (AR v2)
Track 2 accurately ripped (confidence 2) [AA03A3BB] (AR v2)
Track 3 accurately ripped (confidence 2) [FB6B0888] (AR v2)
Track 4 accurately ripped (confidence 2) [6DEC4C42] (AR v2)
Track 5 accurately ripped (confidence 2) [4BA424D7] (AR v2)
Track 6 accurately ripped (confidence 2) [02868192] (AR v2)
Track 7 accurately ripped (confidence 2) [277BCDA6] (AR v2)
Track 8 accurately ripped (confidence 2) [D6999B83] (AR v2)
Track 9 accurately ripped (confidence 2) [2FFD06E2] (AR v2)
Track 10 accurately ripped (confidence 2) [20CB8143] (AR v2)
Track 11 accurately ripped (confidence 2) [E0750510] (AR v2)
Track 12 accurately ripped (confidence 2) [FAC6B2BC] (AR v2)
Track 13 accurately ripped (confidence 2) [746F648F] (AR v2)
Track 14 accurately ripped (confidence 2) [AF0574A1] (AR v2)
Track 15 accurately ripped (confidence 2) [B1630B88] (AR v2)
Track 16 accurately ripped (confidence 2) [ED197F12] (AR v2)
Track 17 accurately ripped (confidence 2) [BB9DA1E8] (AR v2)
Track 18 accurately ripped (confidence 2) [A15CB768] (AR v2)
Track 19 accurately ripped (confidence 2) [8084DEBC] (AR v2)
Track 20 accurately ripped (confidence 2) [85DCFE4A] (AR v2)
Track 21 accurately ripped (confidence 2) [060585D3] (AR v2)
Track 22 accurately ripped (confidence 2) [AF8B41B4] (AR v2)
Track 23 accurately ripped (confidence 2) [A5D3766A] (AR v2)
Track 24 accurately ripped (confidence 2) [A8270BBD] (AR v2)
Track 25 accurately ripped (confidence 2) [9F9BF786] (AR v2)
All tracks accurately ripped
End of status report
==== Log checksum 5F6BF898A17F183FA0E87D7CE9F18624438ED594A23C2FE4B35FABCB62064612 ====



Показать сообщения:    

Текущее время: 06-Дек 15:16

Часовой пояс: UTC + 3


Вы не можете начинать темы
Вы не можете отвечать на сообщения
Вы не можете редактировать свои сообщения
Вы не можете удалять свои сообщения
Вы не можете голосовать в опросах
Вы не можете прикреплять файлы к сообщениям
Вы не можете скачивать файлы