[TR24][OF] Wolfgang Amadeus Mozart - Piano Concertos Nos. 23 & 19 - Maurizio Pollini, Wiener Philharmoniker, Karl Böhm (Bohm) - 1976/2012 (Classical)


Статистика раздачи [Обновить пиров]
Размер:  1.82 GB   |    Зарегистрирован:  8 месяцев 13 дней   |    Скачан:  1 раз

Полного источника не было: 1 месяц 16 дней

 
   
 
 
 

[Цитировать]

Wolfgang Amadeus Mozart
Piano Concertos Nos. 23 & 19
Maurizio Pollini · Wiener Philharmoniker · Karl Böhm
-Год издания/переиздания: 1976/2012 | Жанр: Classical
Издатель: Deutsche Grammophon
Продолжительность: 00:55:11 | Сканы: Sleeve- -Контейнер: FLAC (*.flac) | Тип рипа: tracks
Разрядность: 24bit /192kHz | Количество каналов: 2.0-Maurizio Pollini, piano
Wiener Philharmoniker
Karl Böhm, conductor
Recorded: April 1976 at Grosser Saal, Musikverein, Wien, Austria
-Треклист
Wolfgang Amadeus Mozart (1756-1791)
Concerto for Piano and Orchestra No. 23 in A major, K. 488
01.I. Allegro (11:16)
02. II. Adagio (7:14)
03. III. Allegro assai (8:11)
Concerto for Piano and Orchestra No. 19 in F major, K. 459 '2nd Coronation Concerto'
04. I. Allegro vivace (12:37)
05. II. Allegretto (8:27)
06. III. Allegro assai (7:26)

О релизе


One of the best versions of these works we have had in recent years... One could say that in general Pollini is a shade more open and direct in his projection of the solo part than Perahia, so that there are times when he suggests a greater freshness of feeling... Pollini is robuster in the finales, more overtly brilliant... Comments such as these are inadequate to pin down the qualities of...magnificent artists at the top of their form... --Gramophone
. . . la version de Maurizio Pollini, d'un luxe sonore inoui, présente une synthèse entre les grandes versions symphoniques et les approches chambristes, entre la simplicité de chant et la maîtrise supérieure de la forme . . . Il faudra attendre Wilhelm Kempff et la stéréo pour qu'enfin justice soit rendue à un ancien. La tendresse, la clarté, le style déclamatoire du pianiste sont incomparable. --Bertrand Dermoncourt, Classica - Repertoire
Pollini plays with classical poise and clarity, and the accompaniment, from Karl Böhm and the Vienna Philharmonic, is very lively . . . as a Mozartian he was almost faultless. --David Mellor, Mail on Sunday

ОтчётыДинамический диапазон

foobar2000 1.2.2 / Dynamic Range Meter 1.1.1
log date: 2015-06-09 20:31:14
--------------------------------------------------------------------------------
Analyzed: Maurizio Pollini, Wiener Philharmoniker, Karl Böhm / Mozart: Piano Concertos Nos.19, K.459 & 23, K.488
--------------------------------------------------------------------------------
DR Peak RMS Duration Track
--------------------------------------------------------------------------------
DR13 -2.01 dB -20.95 dB 11:16 ?-Concerto for Piano and Orchestra No. 23 in A major, K. 488 - I. Allegro
DR13 -9.59 dB -28.13 dB 7:14 ?-Concerto for Piano and Orchestra No. 23 in A major, K. 488 - II. Adagio
DR14 -1.73 dB -20.18 dB 8:11 ?-Concerto for Piano and Orchestra No. 23 in A major, K. 488 - III. Allegro assai
DR13 -2.96 dB -21.29 dB 12:37 ?-Concerto for Piano and Orchestra No. 19 in F major, K. 459 '2nd Coronation Concerto' - I. Allegro vivace
DR14 -3.89 dB -25.92 dB 8:27 ?-Concerto for Piano and Orchestra No. 19 in F major, K. 459 '2nd Coronation Concerto' - II. Allegretto
DR14 -1.21 dB -20.41 dB 7:26 ?-Concerto for Piano and Orchestra No. 19 in F major, K. 459 '2nd Coronation Concerto' - III. Allegro assai
--------------------------------------------------------------------------------
Number of tracks: 6
Official DR value: DR14
Samplerate: 192000 Hz
Channels: 2
Bits per sample: 24
Bitrate: 4801 kbps
Codec: FLAC
================================================================================

Скриншот спектра частот

Доп. информация

При скачивании, если необходимо, переименуйте папку, в которой будет находиться альбомБольшая просьба к скачавшим поддерживать раздачу! Помогайте другим, ведь вам тоже может понадобиться помощь!Не забываем говорить "Спасибо"!Комментарии приветствуются!
[teatrix.ru].t21421.torrent 
Торрент: Зарегистрирован [ 2016-03-20 12:16 ] · F0A8F9C767A16EB1C90FA9AF73059BFEA6F9D83E

Скачать .torrent

Скачать

20 KB

Статус: проверено
Скачан: 1 раз
Размер: 1.82 GB
terms.php



Быстрый ответ

Имя:

      
Для отправки сообщений необходимо включить JavaScript
Показать сообщения:    

Текущее время: 03-Дек 09:47

Часовой пояс: UTC + 3


Вы можете начинать темы
Вы можете отвечать на сообщения
Вы не можете редактировать свои сообщения
Вы не можете удалять свои сообщения
Вы не можете голосовать в опросах
Вы не можете прикреплять файлы к сообщениям
Вы можете скачивать файлы