(Classical) Jommelli, Porpora, Galuppi, Handel, Myslivecek, J.C.Bach, Gluck, Hasse - The 5 countertenors (Max Emanuel Cencic, Xavier Sabata, Valer Sabadus, Yuriy Mynenko, Vince Yi) - 2015, FLAC (image+.cue) lossless


 

[Цитировать]

Jommelli, Porpora, Galuppi, Handel, Myslivecek, J.C.Bach, Gluck, Hasse - The 5 countertenors (Max Emanuel Cencic, Xavier Sabata, Valer Sabadus, Yuriy Mynenko, Vince Yi)
Жанр: Classical
Год издания диска: 2015
Издатель (лейбл): DECCA
Номер по каталогу: 478 8094
Дата записи: 2014
Аудиокодек: FLAC
Тип рипа: image+.cue
Битрейт аудио: lossless
Продолжительность: 63'46
Источник: собственный рип
Наличие сканов в содержимом раздачи: да
Исполнители:
Max Emanuel Cencic
Yuriy Mynenko
Valer Sabadus
Xavier Sabata
Vince Yi
Armonia Atenea
Conductor - George Petrou

Треклист:

NICCOLÒ JOMMELLI (1714 - 1774)
1. Spezza lo stral piagato Tito Manlio (second version, Venice 1746) 7:42
Valer Sabadus
NICOLA PORPORA (1686 - 1768)
2. O di spietati numi più spietato ministro! …Tu, spietato, non farai cader vittima Ifigenia in Aulide Xavier Sabata 6:11
BALDASSARE GALUPPI (1706 - 1785)
3. A questa bianca mano Penelope Max Emanuel Cencic 8:43
GEORGE FRIDERIC HANDEL (1685 - 1759)
4. Crude furie degl’orridi abissi Serse Yuriy Mynenko 3:36
JOSEF MYSLIVEČEK (1737 - 1781)
5. Ti parli in seno amore Farnace Vince Yi 7:48
JOHANN CHRISTIAN BACH (1735 - 1782)
6. Ch’io parta? Temistocle Yuriy Mynenko 5:12
CHRISTOPH WILLIBALD GLUCK (1714 - 1787)
7. Non so frenare il pianto Demetrio Valer Sabadus 8:58
FERDINANDO BERTONI (1725 - 1813)
8. Addio, o miei sospiri! Tancredi Max Emanuel Cencic 4:22
GEORGE FRIDERIC HANDEL
9. Otton, Otton … Voi che udite il mio lamento Agrippina Xavier Sabata 6:11
JOHANN ADOLF HASSE (1699 - 1783)
10. Ah, non è ver, ben mio Piramo e Tisbe Vince Yi 5:03

LOG EAC

Exact Audio Copy V1.0 beta 3 from 29. August 2011
EAC extraction logfile from 7. June 2015, 20:43
George Petrou / The 5 countertenors
Used drive : HL-DT-STDVDRAM GH24NS95 Adapter: 0 ID: 0
Read mode : Secure
Utilize accurate stream : Yes
Defeat audio cache : Yes
Make use of C2 pointers : No
Read offset correction : 6
Overread into Lead-In and Lead-Out : No
Fill up missing offset samples with silence : Yes
Delete leading and trailing silent blocks : No
Null samples used in CRC calculations : Yes
Used interface : Native Win32 interface for Win NT & 2000
Used output format : User Defined Encoder
Selected bitrate : 128 kBit/s
Quality : High
Add ID3 tag : No
Command line compressor : C:\Program Files\Exact Audio Copy\Flac\flac.exe
Additional command line options : -V -8 -T "Date=%year%" -T "Genre=%genre%" %source%
TOC of the extracted CD
Track | Start | Length | Start sector | End sector
---------------------------------------------------------
1 | 0:00.00 | 7:42.05 | 0 | 34654
2 | 7:42.05 | 6:11.32 | 34655 | 62511
3 | 13:53.37 | 8:42.73 | 62512 | 101734
4 | 22:36.35 | 3:36.28 | 101735 | 117962
5 | 26:12.63 | 7:47.46 | 117963 | 153033
6 | 34:00.34 | 5:11.38 | 153034 | 176396
7 | 39:11.72 | 8:58.30 | 176397 | 216776
8 | 48:10.27 | 4:22.12 | 216777 | 236438
9 | 52:32.39 | 6:10.43 | 236439 | 264231
10 | 58:43.07 | 5:02.62 | 264232 | 286943
Range status and errors
Selected range
Filename C:\Program Files\Exact Audio Copy\Flac\The 5 countertenors.wav
Peak level 96.7 %
Extraction speed 7.6 X
Range quality 100.0 %
Test CRC 534D9AEE
Copy CRC 534D9AEE
Copy OK
No errors occurred
End of status report
==== Log checksum 0191F96FBE1B8FB7F76BB29A672BF941FDD8291C05656B5A870D9E590E99A085 ====



Показать сообщения:    

Текущее время: 07-Дек 19:26

Часовой пояс: UTC + 3


Вы не можете начинать темы
Вы не можете отвечать на сообщения
Вы не можете редактировать свои сообщения
Вы не можете удалять свои сообщения
Вы не можете голосовать в опросах
Вы не можете прикреплять файлы к сообщениям
Вы не можете скачивать файлы