(Chamber, 20th Century) Isang Yun - Chamber Music (l'art pour l'art) - 1993, FLAC (image+.cue), lossless


 

[Цитировать]

Isang Yun - Chamber Music - l'art pour l'art
Жанр: Chamber, 20th Century
Страна-производитель диска: Germany
Год издания диска: 1993
Издатель (лейбл): CPO
Номер по каталогу: 999 118-2
Дата записи: 10/1992
Аудиокодек: FLAC
Тип рипа: image+.cue
Битрейт аудио: lossless
Продолжительность: 73.57
Источник: собственный рип
Наличие сканов в содержимом раздачи: да
Исполнители: l'art pour l'art

Треклист:

01. Gagok for Voice, Guitar & Percussion (1972)
02. Contrasts. Two Pieces for violin solo (1987) - I
03. Contrasts. Two Pieces for violin solo (1987) - II
04. Duo for Violoncello & Harp (1984) - I
05. Duo for Violoncello & Harp (1984) - II
06. Duo for Violoncello & Harp (1984) - III
07. Sori, for flute solo (1988)
08. Novellette for Flute & Harp with Violin & Violoncello (1980)
Total 73.57

Лог создания рипа:

Exact Audio Copy V1.0 beta 3 from 29. August 2011
Отчёт EAC об извлечении, выполненном 7. июня 2015, 19:55
l'art pour l'art / Isang Yun - Chamber Music
Дисковод: Optiarc DVD RW AD-7260S Adapter: 0 ID: 1
Режим чтения : Достоверность
Использование точного потока : Да
Отключение кэша аудио : Да
Использование указателей C2 : Нет
Коррекция смещения при чтении : 48
Способность читать области Lead-in и Lead-out : Нет
Заполнение пропущенных сэмплов тишиной : Да
Удаление блоков с тишиной в начале и конце : Нет
При вычислениях CRC использовались нулевые сэмплы : Да
Интерфейс : Встроенный Win32-интерфейс для Win NT/2000
Выходной формат : Пользовательский кодировщик
Выбранный битрейт : 896 kBit/s
Качество : Высокий
Добавление ID3-тега : Нет
Утилита сжатия : C:\Program Files\FLAC Frontend\tools\flac.exe
Дополнительные параметры : -V -8 -T "Date=%year%" -T "Genre=%genre%" %source%
TOC извлечённого CD
Трек | Старт | Длительность | Начальный сектор | Конечный сектор
---------------------------------------------------------------------
1 | 0:00.33 | 9:28.10 | 33 | 42642
2 | 9:28.43 | 9:41.50 | 42643 | 86267
3 | 19:10.18 | 7:44.42 | 86268 | 121109
4 | 26:54.60 | 5:34.65 | 121110 | 146224
5 | 32:29.50 | 4:44.45 | 146225 | 167569
6 | 37:14.20 | 5:44.38 | 167570 | 193407
7 | 42:58.58 | 14:30.62 | 193408 | 258719
8 | 57:29.45 | 16:28.53 | 258720 | 332872
Характеристики диапазона извлечения и сообщения об ошибках
Выбранный диапазон
Имя файла D:\EAC\Мои раздачи\Isang Yun - Chamber Music - l'art pour l'art\l'art pour l'art - Isang Yun - Chamber Music.wav
Пиковый уровень 100.0 %
Скорость извлечения 4.5 X
Качество диапазона 100.0 %
CRC теста 2415AA0F
CRC копии 2415AA0F
Копирование... OK
Ошибок не произошло
AccurateRip: сводка
Трек 1 точность не определена (достоверность 1) [F8D7BBB3], AccurateRip вернул [8590C9DA] (AR v2)
Трек 2 точность не определена (достоверность 1) [D8E8504E], AccurateRip вернул [989DBDB9] (AR v2)
Трек 3 точность не определена (достоверность 1) [64BABCFD], AccurateRip вернул [696425F8] (AR v2)
Трек 4 точность не определена (достоверность 1) [710BA094], AccurateRip вернул [28466F41] (AR v2)
Трек 5 точность не определена (достоверность 1) [468951C1], AccurateRip вернул [4DDB53C0] (AR v2)
Трек 6 точность не определена (достоверность 1) [FF901231], AccurateRip вернул [4FCB5451] (AR v2)
Трек 7 точность не определена (достоверность 1) [DE1E378E], AccurateRip вернул [E6E9A365] (AR v2)
Трек 8 точность не определена (достоверность 1) [C5828F4A], AccurateRip вернул [44E0CA03] (AR v2)
Ни один трек не прошёл проверки на точность
В вашей базе может быть иной вариант штамповки диска
Конец отчёта
==== Контрольная сумма отчёта C9E7A899DD4B6068E03C979F22E93DC7A7593659E5B507278A99E58935D39808 ====



Показать сообщения:    

Текущее время: 08-Дек 19:09

Часовой пояс: UTC + 3


Вы не можете начинать темы
Вы не можете отвечать на сообщения
Вы не можете редактировать свои сообщения
Вы не можете удалять свои сообщения
Вы не можете голосовать в опросах
Вы не можете прикреплять файлы к сообщениям
Вы не можете скачивать файлы