(Opera) Malipiero - Giulio Cesare (Colzani, Zanolli, Bertocci, Ricciardi, Scarlini - Orchestra Sinfonica & Coro Di Milano Della Rai, Sanzogno) - 2007, APE (tracks) lossless


 

[Цитировать]

Gian Francesco Malipiero - Giulio Cesare
Жанр: Opera
Страна-производитель диска: Germany
Год издания диска: 2007
Издатель (лейбл): Cantus Classics
Номер по каталогу: 5.0096
Дата записи: 1956
Аудиокодек: APE
Тип рипа: tracks
Битрейт аудио: lossless
Продолжительность: 66'44+79'52
Источник: собственный рип
Наличие сканов в содержимом раздачи: да
Треклист:

CD1

1. Act 1. Preludio
2. Act 1. Va di qua, poltroni. Tomate alle vostre case
3. Calpurnia!... Olà, silenzio! Cesare parla!
4. Act 1. Venite a vedere la corsa?
5. Act 1. Antonio!... Cesare!
6. Act 1. Casca! Diteci perchè Cesare
7. Act 1. Ehi, Lucio! Non riesco a capire
8. Act 1. C'è vostro fratello Cassio che desidera vedervi
9. Act 1. Mio signore... Porzia, che volete?
10. Act 1. Lucio, vattene. Ebbene, figlio mio?
11. Act 2. Preludio
12. Act 2. Nè il cielo, nè la terra sono stati in pace questa notte
13. Act 2. O Cesare, queste sono cose inaudite
14. Act 2. Ho avuto torto di farmi attenddere così

CD2

1. Act 2. Potrei commuovermi se fossi come voi
2. Act 2. Possente Cesare! Sei tu caduto tanto in basso?
3. Act 3. Romani, compatrioti e amici
4. Act 3. Dunque non ho offeso nesuno
5. Act 3. Ancora ieri sera la parola di Cesare
6. Act 3. Se avete lacrime, ora preparatevi a versarle!
7. Act 3. Il vostro nome?... Dove andate
9. Act 3. Anche la voce, chè alle api voi avete preso
10. Act 3. Pindato, sali più in alto su quella collina
11. Act 3. Lo spetto di Cesare m'è apparso due volte!
12. Act 3. Alme. Sol, curru nitido diem qui
Исполнители:
Gian Francesco Malipiero - Giulio Cesare
Dramma musicale in tre atti e sette quadri di Gian Francesco Malipiero
Cesare - Anselmo Colzani
Calpurnia - Silvana Zanolli
Bruto - Renato Capecchi
Marco Antonio - Aldo Bertocci
Metello/Un Tribuno - Saturno Meletti
Cassio - Afro Poli
Lucio - Franco Ricciardi
Ligario/Pindaro/Cinna - Angelo Mercuriali
Casca - Glauco Scarlini
Porzia - Mariella Angioletti
Un Servo/Un Messaggero - Aurora Cattelani
Volumnio/Un Cittadino - Guido Mazzini
Altro Cittadino/Decius - Attilio Barbesi
Stratone/L"Indovino - Dario Caselli
Orchestra Sinfonica & Coro Di Milano Della Rai
Nino Sanzogno

Лог создания рипа

CD1

Exact Audio Copy V1.0 beta 6 from 9. April 2015
EAC extraction logfile from 10. June 2015, 1:50
Malipiero / Giulio Cesare, Sanzogno CD1
Used drive : TSSTcorpCDDVDW SE-208AB Adapter: 1 ID: 1
Read mode : Secure
Utilize accurate stream : Yes
Defeat audio cache : Yes
Make use of C2 pointers : No
Read offset correction : 6
Overread into Lead-In and Lead-Out : No
Fill up missing offset samples with silence : Yes
Delete leading and trailing silent blocks : No
Null samples used in CRC calculations : Yes
Used interface : Native Win32 interface for Win NT & 2000
Gap handling : Not detected, thus appended to previous track
Used output format : Monkey's Audio Lossless Encoder
Selected bitrate : High Lossless Compression
Quality : High
Add ID3 tag : Yes
Command line compressor : C:\Program Files (x86)\Exact Audio Copy\MAC\MAC.exe
TOC of the extracted CD
Track | Start | Length | Start sector | End sector
---------------------------------------------------------
1 | 0:00.00 | 3:15.35 | 0 | 14659
2 | 3:15.35 | 4:01.19 | 14660 | 32753
3 | 7:16.54 | 3:19.10 | 32754 | 47688
4 | 10:35.64 | 4:32.41 | 47689 | 68129
5 | 15:08.30 | 2:21.42 | 68130 | 78746
6 | 17:29.72 | 5:53.04 | 78747 | 105225
7 | 23:23.01 | 2:56.57 | 105226 | 118482
8 | 26:19.58 | 3:35.25 | 118483 | 134632
9 | 29:55.08 | 4:38.45 | 134633 | 155527
10 | 34:33.53 | 2:59.48 | 155528 | 169000
11 | 37:33.26 | 2:28.59 | 169001 | 180159
12 | 40:02.10 | 3:11.54 | 180160 | 194538
13 | 43:13.64 | 5:48.67 | 194539 | 220705
14 | 49:02.56 | 7:10.69 | 220706 | 253024
Track 1
Filename D:\EAC\Lazarus CD2\Cesare CD1\01 Act 1. Preludio..wav
Peak level 77.4 %
Extraction speed 2.9 X
Track quality 100.0 %
Test CRC B0A9AAD0
Copy CRC B0A9AAD0
Cannot be verified as accurate (confidence 1) [9BFCF891], AccurateRip returned [A358E69E] (AR v2)
Copy OK
Track 2
Filename D:\EAC\Lazarus CD2\Cesare CD1\02 Act 1. Va di qua, poltroni. Tomate alle vostre case..wav
Peak level 56.7 %
Extraction speed 3.2 X
Track quality 100.0 %
Test CRC 8627A2A5
Copy CRC 8627A2A5
Cannot be verified as accurate (confidence 1) [722813FB], AccurateRip returned [BE38514A] (AR v2)
Copy OK
Track 3
Filename D:\EAC\Lazarus CD2\Cesare CD1\03 Act 1. Calpurnia!... Olà, silenzio! Cesare parla!.wav
Peak level 45.9 %
Extraction speed 3.4 X
Track quality 100.0 %
Test CRC E576CE22
Copy CRC E576CE22
Cannot be verified as accurate (confidence 1) [3162518D], AccurateRip returned [12D1E9FB] (AR v2)
Copy OK
Track 4
Filename D:\EAC\Lazarus CD2\Cesare CD1\04 Act 1. Venite a vedere la corsa.wav
Peak level 78.6 %
Extraction speed 3.1 X
Track quality 99.9 %
Test CRC CBA2A10F
Copy CRC CBA2A10F
Cannot be verified as accurate (confidence 1) [A0587241], AccurateRip returned [E5600C21] (AR v2)
Copy OK
Track 5
Filename D:\EAC\Lazarus CD2\Cesare CD1\05 Act 1. Antonio!... Cesare!.wav
Peak level 28.1 %
Extraction speed 3.5 X
Track quality 100.0 %
Test CRC BAB7E53B
Copy CRC BAB7E53B
Cannot be verified as accurate (confidence 1) [0D0A9AB1], AccurateRip returned [924C299C] (AR v2)
Copy OK
Track 6
Filename D:\EAC\Lazarus CD2\Cesare CD1\06 Act 1. Casca! Diteci perchè Cesare.wav
Peak level 50.0 %
Extraction speed 4.2 X
Track quality 100.0 %
Test CRC 09C4A2B7
Copy CRC 09C4A2B7
Cannot be verified as accurate (confidence 1) [2570ECFA], AccurateRip returned [C1444912] (AR v2)
Copy OK
Track 7
Filename D:\EAC\Lazarus CD2\Cesare CD1\07 Act 1. Ehi, Lucio! Non riesco a capire.wav
Peak level 76.5 %
Extraction speed 4.1 X
Track quality 100.0 %
Test CRC 27CBA38F
Copy CRC 27CBA38F
Cannot be verified as accurate (confidence 1) [3277B13B], AccurateRip returned [BE85C9BC] (AR v2)
Copy OK
Track 8
Filename D:\EAC\Lazarus CD2\Cesare CD1\08 Act 1. C'è vostro fratello Cassio che desidera vedervi..wav
Peak level 67.7 %
Extraction speed 4.3 X
Track quality 100.0 %
Test CRC 2A2D4839
Copy CRC 2A2D4839
Cannot be verified as accurate (confidence 1) [90981514], AccurateRip returned [F86BA9B1] (AR v2)
Copy OK
Track 9
Filename D:\EAC\Lazarus CD2\Cesare CD1\09 Act 1. Mio signore... Porzia, che volete.wav
Peak level 80.2 %
Extraction speed 4.7 X
Track quality 100.0 %
Test CRC 043601E5
Copy CRC 043601E5
Cannot be verified as accurate (confidence 1) [0FE93292], AccurateRip returned [EACCCF56] (AR v2)
Copy OK
Track 10
Filename D:\EAC\Lazarus CD2\Cesare CD1\10 Act 1. Lucio, vattene. Ebbene, figlio mio.wav
Peak level 79.8 %
Extraction speed 3.4 X
Track quality 99.9 %
Test CRC 4DA5C992
Copy CRC 4DA5C992
Cannot be verified as accurate (confidence 1) [DE9AEDB2], AccurateRip returned [ED29B216] (AR v2)
Copy OK
Track 11
Filename D:\EAC\Lazarus CD2\Cesare CD1\11 Act 2. Preludio..wav
Peak level 83.2 %
Extraction speed 4.4 X
Track quality 100.0 %
Test CRC 504A302A
Copy CRC 504A302A
Cannot be verified as accurate (confidence 1) [19710C96], AccurateRip returned [9CDCC2F0] (AR v2)
Copy OK
Track 12
Filename D:\EAC\Lazarus CD2\Cesare CD1\12 Act 2. Nè il cielo, nè la terra sono stati in pace questa notte..wav
Peak level 58.1 %
Extraction speed 4.8 X
Track quality 100.0 %
Test CRC E7D48D01
Copy CRC E7D48D01
Cannot be verified as accurate (confidence 1) [9CEA48C3], AccurateRip returned [627371EE] (AR v2)
Copy OK
Track 13
Filename D:\EAC\Lazarus CD2\Cesare CD1\13 Act 2. O Cesare, queste sono cose inaudite.wav
Peak level 59.5 %
Extraction speed 4.6 X
Track quality 99.9 %
Test CRC 16F681CF
Copy CRC 16F681CF
Cannot be verified as accurate (confidence 1) [7B813435], AccurateRip returned [F14DA921] (AR v2)
Copy OK
Track 14
Filename D:\EAC\Lazarus CD2\Cesare CD1\14 Act 2. Ho avuto torto di farmi attenddere così..wav
Peak level 55.3 %
Extraction speed 5.0 X
Track quality 99.9 %
Test CRC D620BB6B
Copy CRC D620BB6B
Cannot be verified as accurate (confidence 1) [D8A3AC55], AccurateRip returned [AD8A47FB] (AR v2)
Copy OK
No tracks could be verified as accurate
You may have a different pressing from the one(s) in the database
No errors occurred
End of status report
---- CUETools DB Plugin V2.1.6
[CTDB TOCID: AvhidkYpGe41F.pfoRFO8NS7yKc-] found
Submit result: AvhidkYpGe41F.pfoRFO8NS7yKc- has been uploaded
Track | CTDB Status
1 | (0/1) No match
2 | (0/1) No match
3 | (0/1) No match
4 | (0/1) No match
5 | (0/1) No match
6 | (0/1) No match
7 | (0/1) No match
8 | (0/1) No match
9 | (0/1) No match
10 | (0/1) No match
11 | (0/1) No match
12 | (0/1) No match
13 | (0/1) No match
14 | (0/1) No match
==== Log checksum 811E6BAE8636A4FB8011B3C35B336098061B20AF9145824A9C463A7378C924FB ====

CD2

Exact Audio Copy V1.0 beta 6 from 9. April 2015
EAC extraction logfile from 10. June 2015, 2:31
Malipiero / Giulio Cesare, Sanzogno CD2
Used drive : TSSTcorpCDDVDW SE-208AB Adapter: 1 ID: 1
Read mode : Secure
Utilize accurate stream : Yes
Defeat audio cache : Yes
Make use of C2 pointers : No
Read offset correction : 6
Overread into Lead-In and Lead-Out : No
Fill up missing offset samples with silence : Yes
Delete leading and trailing silent blocks : No
Null samples used in CRC calculations : Yes
Used interface : Native Win32 interface for Win NT & 2000
Gap handling : Not detected, thus appended to previous track
Used output format : Monkey's Audio Lossless Encoder
Selected bitrate : High Lossless Compression
Quality : High
Add ID3 tag : Yes
Command line compressor : C:\Program Files (x86)\Exact Audio Copy\MAC\MAC.exe
TOC of the extracted CD
Track | Start | Length | Start sector | End sector
---------------------------------------------------------
1 | 0:00.00 | 2:53.50 | 0 | 13024
2 | 2:53.50 | 7:50.73 | 13025 | 48347
3 | 10:44.48 | 4:27.01 | 48348 | 68373
4 | 15:11.49 | 6:36.46 | 68374 | 98119
5 | 21:48.20 | 3:35.38 | 98120 | 114282
6 | 25:23.58 | 6:23.63 | 114283 | 143070
7 | 31:47.46 | 3:29.20 | 143071 | 158765
8 | 35:16.66 | 3:51.01 | 158766 | 176091
9 | 39:07.67 | 5:15.49 | 176092 | 199765
10 | 44:23.41 | 4:06.46 | 199766 | 218261
11 | 48:30.12 | 2:40.33 | 218262 | 230294
12 | 51:10.45 | 4:24.28 | 230295 | 250122
Track 1
Filename D:\EAC\Cesare CD2\01 Act 2. Potrei commuovermi se fossi come voi..wav
Peak level 75.8 %
Extraction speed 2.8 X
Track quality 100.0 %
Test CRC AEDDED04
Copy CRC AEDDED04
Accurately ripped (confidence 1) [B5547A27] (AR v1)
Copy OK
Track 2
Filename D:\EAC\Cesare CD2\02 Act 2. Possente Cesare! Sei tu caduto tanto in basso.wav
Peak level 85.1 %
Extraction speed 3.6 X
Track quality 100.0 %
Test CRC BFF8BFDF
Copy CRC BFF8BFDF
Accurately ripped (confidence 1) [D9076910] (AR v1)
Copy OK
Track 3
Filename D:\EAC\Cesare CD2\03 Act 3. Romani, compatrioti e amici..wav
Peak level 72.8 %
Extraction speed 3.7 X
Track quality 100.0 %
Test CRC 3083A001
Copy CRC 3083A001
Accurately ripped (confidence 1) [D4437744] (AR v1)
Copy OK
Track 4
Filename D:\EAC\Cesare CD2\04 Act 3. Dunque non ho offeso nesuno.wav
Peak level 79.8 %
Extraction speed 4.2 X
Track quality 100.0 %
Test CRC 8DD992B8
Copy CRC 8DD992B8
Accurately ripped (confidence 1) [8190EB76] (AR v1)
Copy OK
Track 5
Filename D:\EAC\Cesare CD2\05 Act 3. Ancora ieri sera la parola di Cesare.wav
Peak level 77.0 %
Extraction speed 4.1 X
Track quality 100.0 %
Test CRC D3383833
Copy CRC D3383833
Accurately ripped (confidence 1) [D9AC09AE] (AR v1)
Copy OK
Track 6
Filename D:\EAC\Cesare CD2\06 Act 3. Se avete lacrime, ora preparatevi a versarle!.wav
Peak level 82.0 %
Extraction speed 4.7 X
Track quality 100.0 %
Test CRC 9825856E
Copy CRC 9825856E
Accurately ripped (confidence 1) [36C3A1DC] (AR v1)
Copy OK
Track 7
Filename D:\EAC\Cesare CD2\07 Act 3. Il vostro nome... Dove andate.wav
Peak level 81.2 %
Extraction speed 4.5 X
Track quality 100.0 %
Test CRC 3D694F72
Copy CRC 3D694F72
Accurately ripped (confidence 1) [D8AAD22E] (AR v1)
Copy OK
Track 8
Filename D:\EAC\Cesare CD2\08 Act 3. Ecco le forze nemiche in vista..wav
Peak level 53.2 %
Extraction speed 4.8 X
Track quality 100.0 %
Test CRC A699CC52
Copy CRC A699CC52
Accurately ripped (confidence 1) [08FA04D5] (AR v1)
Copy OK
Track 9
Filename D:\EAC\Cesare CD2\09 Act 3. Anche la voce, chè alle api voi avete preso.wav
Peak level 86.1 %
Extraction speed 5.1 X
Track quality 100.0 %
Test CRC 3FB7299B
Copy CRC 3FB7299B
Accurately ripped (confidence 1) [E5623274] (AR v1)
Copy OK
Track 10
Filename D:\EAC\Cesare CD2\10 Act 3. Pindato, sali più in alto su quella collina..wav
Peak level 85.6 %
Extraction speed 5.1 X
Track quality 100.0 %
Test CRC 84DEFC5A
Copy CRC 84DEFC5A
Accurately ripped (confidence 1) [A1BE4FAF] (AR v1)
Copy OK
Track 11
Filename D:\EAC\Cesare CD2\11 Act 3. Lo spetto di Cesare m'è apparso due volte!.wav
Peak level 81.8 %
Extraction speed 4.9 X
Track quality 100.0 %
Test CRC 21DBB743
Copy CRC 21DBB743
Accurately ripped (confidence 1) [8BDFEB43] (AR v1)
Copy OK
Track 12
Filename D:\EAC\Cesare CD2\12 Act 3. Alme. Sol, curru nitido diem qui.wav
Peak level 71.3 %
Extraction speed 5.5 X
Track quality 100.0 %
Test CRC 29E20465
Copy CRC 29E20465
Accurately ripped (confidence 1) [6578D906] (AR v1)
Copy OK
All tracks accurately ripped
No errors occurred
End of status report
---- CUETools DB Plugin V2.1.6
[CTDB TOCID: zheW4GsH_vmRim_vdOGWKYo2v9M-] found
Submit result: already submitted
Track | CTDB Status
1 | (1/1) Accurately ripped
2 | (1/1) Accurately ripped
3 | (1/1) Accurately ripped
4 | (1/1) Accurately ripped
5 | (1/1) Accurately ripped
6 | (1/1) Accurately ripped
7 | (1/1) Accurately ripped
8 | (1/1) Accurately ripped
9 | (1/1) Accurately ripped
10 | (1/1) Accurately ripped
11 | (1/1) Accurately ripped
12 | (1/1) Accurately ripped
==== Log checksum 11D9BC9CCA1916C44C91E1E257EFC10F4925E5B3B4019B0E30C6F2D150746BFE ====



Показать сообщения:    

Текущее время: 07-Дек 17:32

Часовой пояс: UTC + 3


Вы не можете начинать темы
Вы не можете отвечать на сообщения
Вы не можете редактировать свои сообщения
Вы не можете удалять свои сообщения
Вы не можете голосовать в опросах
Вы не можете прикреплять файлы к сообщениям
Вы не можете скачивать файлы