(Vocal / Вокал) Фёдор Шаляпин/Feodor Chaliapin - sings Russian Folk Songs - 2004 (Маныкин-Невструев, Глинка, Малашкин, Кёнеман, Рубинштейн), FLAC (tracks+.cue) lossless


 

[Цитировать]

Фёдор Шаляпин/Feodor Chaliapin - sings Russian Folk Songs
Жанр: Vocal / Вокал
Страна-производитель диска: Germany
Год издания диска: 2004
Издатель (лейбл): Hänssler Classic
Номер по каталогу: 94.504
UPC: 040888450429
EAN: 4010276016748
Дата записи: 1911,1921-1924,1926,1927,1929-1932,1934
Аудиокодек: FLAC
Тип рипа: tracks+.cue
Битрейт аудио: lossless
Продолжительность: 68:12
Источник: собственный рип
Наличие сканов в содержимом раздачи: да
Треклист:
1. Eh, Ukhnyem (Song of the Volga Boatmen), folk song 3:21
Russian Traditional
2. Stjenka razin (Those Were the Days), folk song 4:03
Russian Traditional
3. Räuberlied (Die Legende von den zwölf Räubern) 3:57
Russian Traditional
4. Down the Mother Volga, folksong 3:25
Russian Traditional
5. Dark eyes ("Ochi chornye," "Black Eyes"), folk song 3:23
Russian Traditional
6. Dubinushka, Russian folksong 3:26
Russian Traditional
7. Der Peterskaja-Straße entlang 2:16
Russian Traditional
8. Arise, red sun (Rote Sonne, gehe auf über der Wolga) 3:29
Russian Traditional
9. Song of the Needy Pilgrim, song 3:30
Nickolai Manykin-Nevstruev
10. Doubt (Someniye), song for voice, harp & violin, G. ix108 4:35
Mikhail Glinka
11. Dargomyschsky, der alte Corporal (Dargomyschsky, the Old Corporal), song 4:32
Russian Traditional
12. Eh, Vanka (Crazy-headed John) 3:01
Russian Traditional
13. Oh, Could I in Song Tell My Sorrow for voice & piano (or orchestra) 2:24
Leonid Dimitrievitch Malashkin
14. Ne veljat Mase za rek - za recenku chodit' (They Don't Let Masha Go Down by the Brook), folk song (a.k.a. "Mashenka") 3:35
Russian Traditional
15. The Night Review (Nochnoy smotr), song for voice & orchestra (first version), G. viii93 4:00
Mikhail Glinka
16. When the King Went Forth To War, for voice & piano, Op. 7/6 3:52
Feodor Feodorovich Koenemann
17. The Turbulent waters of Kur 4:39
Anton Rubinstein
18. Mephistopheles' Song of the Flea, for voice & piano or orchestra, edited by Rimsky-Korsakov 2:49
Modest Mussorgsky
Исполнители:
Feodor Chaliapin Bass (Vocal), Primary Artist

Лог создания рипа

Exact Audio Copy V1.0 beta 6 from 9. April 2015
Отчёт EAC об извлечении, выполненном 10. июня 2015, 20:36
Feodor Chaliapin / sings Russian Folk Songs
Дисковод: Optiarc DVD RW AD-7200S Adapter: 1 ID: 0
Режим чтения : Достоверность
Использование точного потока : Да
Отключение кэша аудио : Да
Использование указателей C2 : Нет
Коррекция смещения при чтении : 48
Способность читать области Lead-in и Lead-out : Нет
Заполнение пропущенных сэмплов тишиной : Да
Удаление блоков с тишиной в начале и конце : Нет
При вычислениях CRC использовались нулевые сэмплы : Да
Интерфейс : Встроенный Win32-интерфейс для Win NT/2000
Обработка зазоров : Добавлено к предыдущему треку
Выходной формат : Пользовательский кодировщик
Выбранный битрейт : 1024 kBit/s
Качество : Высокий
Добавление ID3-тега : Нет
Утилита сжатия : C:\program files\Exact Audio Copy\Flac\flac.exe
Дополнительные параметры : -V -8 -T "Artist=%artist%" -T "Album=%albumtitle%" -T "Tracknumber=%Tracknr%" -T "Title=%title%" -T "Date=%year%" -T "Genre=%genre%" %source%
TOC извлечённого CD
Трек | Старт | Длительность | Начальный сектор | Конечный сектор
---------------------------------------------------------------------
1 | 0:00.00 | 3:21.01 | 0 | 15075
2 | 3:21.01 | 4:03.55 | 15076 | 33355
3 | 7:24.56 | 3:57.74 | 33356 | 51204
4 | 11:22.55 | 3:25.38 | 51205 | 66617
5 | 14:48.18 | 3:23.73 | 66618 | 81915
6 | 18:12.16 | 3:26.03 | 81916 | 97368
7 | 21:38.19 | 2:16.74 | 97369 | 107642
8 | 23:55.18 | 3:29.22 | 107643 | 123339
9 | 27:24.40 | 3:30.46 | 123340 | 139135
10 | 30:55.11 | 4:35.56 | 139136 | 159816
11 | 35:30.67 | 4:32.24 | 159817 | 180240
12 | 40:03.16 | 3:01.46 | 180241 | 193861
13 | 43:04.62 | 2:24.64 | 193862 | 204725
14 | 45:29.51 | 3:35.09 | 204726 | 220859
15 | 49:04.60 | 4:00.31 | 220860 | 238890
16 | 53:05.16 | 3:52.54 | 238891 | 256344
17 | 56:57.70 | 4:39.59 | 256345 | 277328
18 | 61:37.54 | 2:49.37 | 277329 | 290040
Трек 1
Имя файла D:\Feodor Chaliapin\(2004) sings Russian Folk Songs\Feodor Chaliapin - sings Russian Folk Songs - 01. Gesang der Wolgaschiffer (Song Of The Volga Boatmen).wav
Длина предзазора 0:00:02.00
Пиковый уровень 69.0 %
Скорость извлечения 2.2 X
Качество трека 100.0 %
CRC теста 6350FA11
CRC копии 6350FA11
Трек не обнаружен в базе AccurateRip
Копирование... OK
Трек 2
Имя файла D:\Feodor Chaliapin\(2004) sings Russian Folk Songs\Feodor Chaliapin - sings Russian Folk Songs - 02. Stenka Rasin.wav
Пиковый уровень 59.5 %
Скорость извлечения 2.5 X
Качество трека 100.0 %
CRC теста 5A015DE6
CRC копии 5A015DE6
Трек не обнаружен в базе AccurateRip
Копирование... OK
Трек 3
Имя файла D:\Feodor Chaliapin\(2004) sings Russian Folk Songs\Feodor Chaliapin - sings Russian Folk Songs - 03. Die legende von den zwolf Briganten (The Legend Of The Twelve Brigands).wav
Пиковый уровень 70.7 %
Скорость извлечения 2.7 X
Качество трека 100.0 %
CRC теста B6293C91
CRC копии B6293C91
Трек не обнаружен в базе AccurateRip
Копирование... OK
Трек 4
Имя файла D:\Feodor Chaliapin\(2004) sings Russian Folk Songs\Feodor Chaliapin - sings Russian Folk Songs - 04. An der Wolga (Down The Volga).wav
Пиковый уровень 72.1 %
Скорость извлечения 2.5 X
Качество трека 99.9 %
CRC теста 772A52D5
CRC копии 772A52D5
Трек не обнаружен в базе AccurateRip
Копирование... OK
Трек 5
Имя файла D:\Feodor Chaliapin\(2004) sings Russian Folk Songs\Feodor Chaliapin - sings Russian Folk Songs - 05. Schwarze Augen (Black Eyes).wav
Пиковый уровень 65.0 %
Скорость извлечения 3.1 X
Качество трека 100.0 %
CRC теста 9E7F89A9
CRC копии 9E7F89A9
Трек не обнаружен в базе AccurateRip
Копирование... OK
Трек 6
Имя файла D:\Feodor Chaliapin\(2004) sings Russian Folk Songs\Feodor Chaliapin - sings Russian Folk Songs - 06. Dubinuschka.wav
Пиковый уровень 68.9 %
Скорость извлечения 3.2 X
Качество трека 100.0 %
CRC теста A420D154
CRC копии A420D154
Трек не обнаружен в базе AccurateRip
Копирование... OK
Трек 7
Имя файла D:\Feodor Chaliapin\(2004) sings Russian Folk Songs\Feodor Chaliapin - sings Russian Folk Songs - 07. Die Peterskaja entlang (Down The Petersky).wav
Пиковый уровень 50.6 %
Скорость извлечения 3.1 X
Качество трека 100.0 %
CRC теста 10765E58
CRC копии 10765E58
Трек не обнаружен в базе AccurateRip
Копирование... OK
Трек 8
Имя файла D:\Feodor Chaliapin\(2004) sings Russian Folk Songs\Feodor Chaliapin - sings Russian Folk Songs - 08. Rote Sonne, gehe auf uber der Wolga (Arise Red Sun).wav
Пиковый уровень 99.5 %
Скорость извлечения 3.5 X
Качество трека 100.0 %
CRC теста 6BCE10DB
CRC копии 6BCE10DB
Трек не обнаружен в базе AccurateRip
Копирование... OK
Трек 9
Имя файла D:\Feodor Chaliapin\(2004) sings Russian Folk Songs\Feodor Chaliapin - sings Russian Folk Songs - 09. Nekrassoff-Nevstrueff-Manikin, Das Lied des armen Pilgers (Song Of The Needy Pilgrim).wav
Пиковый уровень 70.2 %
Скорость извлечения 3.6 X
Качество трека 100.0 %
CRC теста 2DF4ACFC
CRC копии 2DF4ACFC
Трек не обнаружен в базе AccurateRip
Копирование... OK
Трек 10
Имя файла D:\Feodor Chaliapin\(2004) sings Russian Folk Songs\Feodor Chaliapin - sings Russian Folk Songs - 10. Glinka, Zweifel (Doubt).wav
Пиковый уровень 41.6 %
Скорость извлечения 3.9 X
Качество трека 100.0 %
CRC теста 245807F2
CRC копии 245807F2
Трек не обнаружен в базе AccurateRip
Копирование... OK
Трек 11
Имя файла D:\Feodor Chaliapin\(2004) sings Russian Folk Songs\Feodor Chaliapin - sings Russian Folk Songs - 11. Dargomyschsky, Der alte Corporal (The Old Corporal).wav
Пиковый уровень 45.0 %
Скорость извлечения 4.1 X
Качество трека 100.0 %
CRC теста 789F31F5
CRC копии 789F31F5
Трек не обнаружен в базе AccurateRip
Копирование... OK
Трек 12
Имя файла D:\Feodor Chaliapin\(2004) sings Russian Folk Songs\Feodor Chaliapin - sings Russian Folk Songs - 12. Eh! Vanka (Crazy- Headed John).wav
Пиковый уровень 60.0 %
Скорость извлечения 3.4 X
Качество трека 99.9 %
CRC теста FB9247F3
CRC копии FB9247F3
Трек не обнаружен в базе AccurateRip
Копирование... OK
Трек 13
Имя файла D:\Feodor Chaliapin\(2004) sings Russian Folk Songs\Feodor Chaliapin - sings Russian Folk Songs - 13. Malashkin, Oh, Could I But Express In Song.wav
Пиковый уровень 52.4 %
Скорость извлечения 3.9 X
Качество трека 100.0 %
CRC теста 679FB187
CRC копии 679FB187
Трек не обнаружен в базе AccurateRip
Копирование... OK
Трек 14
Имя файла D:\Feodor Chaliapin\(2004) sings Russian Folk Songs\Feodor Chaliapin - sings Russian Folk Songs - 14. Mashenka (They Won't Let Masha Walk By The Brook).wav
Пиковый уровень 59.4 %
Скорость извлечения 3.7 X
Качество трека 99.9 %
CRC теста 5E0354AC
CRC копии 5E0354AC
Трек не обнаружен в базе AccurateRip
Копирование... OK
Трек 15
Имя файла D:\Feodor Chaliapin\(2004) sings Russian Folk Songs\Feodor Chaliapin - sings Russian Folk Songs - 15. Glinka, Nachtliche Parade (The Midnight Review).wav
Пиковый уровень 75.1 %
Скорость извлечения 4.5 X
Качество трека 100.0 %
CRC теста 8DAC3863
CRC копии 8DAC3863
Трек не обнаружен в базе AccurateRip
Копирование... OK
Трек 16
Имя файла D:\Feodor Chaliapin\(2004) sings Russian Folk Songs\Feodor Chaliapin - sings Russian Folk Songs - 16. Als der Konig zog zu Feld (When the King Went Forth To War).wav
Пиковый уровень 83.3 %
Скорость извлечения 4.0 X
Качество трека 99.9 %
CRC теста 0F5F26B3
CRC копии 0F5F26B3
Трек не обнаружен в базе AccurateRip
Копирование... OK
Трек 17
Имя файла D:\Feodor Chaliapin\(2004) sings Russian Folk Songs\Feodor Chaliapin - sings Russian Folk Songs - 17. Rubinstein, Persisches Liebeslied (Persian Love Song - The Turbulent Water of Kur).wav
Пиковый уровень 58.8 %
Скорость извлечения 4.8 X
Качество трека 100.0 %
CRC теста 72A486A0
CRC копии 72A486A0
Трек не обнаружен в базе AccurateRip
Копирование... OK
Трек 18
Имя файла D:\Feodor Chaliapin\(2004) sings Russian Folk Songs\Feodor Chaliapin - sings Russian Folk Songs - 18. Mussorgsky, Flohlied (Song Of The Flea).wav
Пиковый уровень 66.4 %
Скорость извлечения 4.6 X
Качество трека 100.0 %
CRC теста 9C97145A
CRC копии 9C97145A
Трек не обнаружен в базе AccurateRip
Копирование... OK
Ни одного трека нет в базе AccurateRip
Ошибок не произошло
Конец отчёта
==== Контрольная сумма отчёта 41601034EDEA42F167DCB8FA0740D7533C4091F8A118F65EBEF2D0AD3453D458 ====

Содержание индексной карты (.CUE)

REM GENRE Vocal
REM DATE 2004
REM DISCID 090F1B12
REM COMMENT "ExactAudioCopy v1.0b6"
PERFORMER "Feodor Chaliapin"
TITLE "sings Russian Folk Songs"
FILE "Feodor Chaliapin - sings Russian Folk Songs - 01. Gesang der Wolgaschiffer (Song Of The Volga Boatmen).wav" WAVE
TRACK 01 AUDIO
TITLE "Gesang der Wolgaschiffer (Song Of The Volga Boatmen)"
PERFORMER "Feodor Chaliapin"
FLAGS DCP
INDEX 01 00:00:00
FILE "Feodor Chaliapin - sings Russian Folk Songs - 02. Stenka Rasin.wav" WAVE
TRACK 02 AUDIO
TITLE "Stenka Rasin"
PERFORMER "Feodor Chaliapin"
FLAGS DCP
INDEX 01 00:00:00
FILE "Feodor Chaliapin - sings Russian Folk Songs - 03. Die legende von den zwolf Briganten (The Legend Of The Twelve Brigands).wav" WAVE
TRACK 03 AUDIO
TITLE "Die legende von den zwolf Briganten (The Legend Of The Twelve Brigands)"
PERFORMER "Feodor Chaliapin"
FLAGS DCP
INDEX 01 00:00:00
FILE "Feodor Chaliapin - sings Russian Folk Songs - 04. An der Wolga (Down The Volga).wav" WAVE
TRACK 04 AUDIO
TITLE "An der Wolga (Down The Volga)"
PERFORMER "Feodor Chaliapin"
FLAGS DCP
INDEX 01 00:00:00
FILE "Feodor Chaliapin - sings Russian Folk Songs - 05. Schwarze Augen (Black Eyes).wav" WAVE
TRACK 05 AUDIO
TITLE "Schwarze Augen (Black Eyes)"
PERFORMER "Feodor Chaliapin"
FLAGS DCP
INDEX 01 00:00:00
FILE "Feodor Chaliapin - sings Russian Folk Songs - 06. Dubinuschka.wav" WAVE
TRACK 06 AUDIO
TITLE "Dubinuschka"
PERFORMER "Feodor Chaliapin"
FLAGS DCP
INDEX 01 00:00:00
FILE "Feodor Chaliapin - sings Russian Folk Songs - 07. Die Peterskaja entlang (Down The Petersky).wav" WAVE
TRACK 07 AUDIO
TITLE "Die Peterskaja entlang (Down The Petersky)"
PERFORMER "Feodor Chaliapin"
FLAGS DCP
INDEX 01 00:00:00
FILE "Feodor Chaliapin - sings Russian Folk Songs - 08. Rote Sonne, gehe auf uber der Wolga (Arise Red Sun).wav" WAVE
TRACK 08 AUDIO
TITLE "Rote Sonne, gehe auf uber der Wolga (Arise Red Sun)"
PERFORMER "Feodor Chaliapin"
FLAGS DCP
INDEX 01 00:00:00
FILE "Feodor Chaliapin - sings Russian Folk Songs - 09. Nekrassoff-Nevstrueff-Manikin, Das Lied des armen Pilgers (Song Of The Needy Pilgrim).wav" WAVE
TRACK 09 AUDIO
TITLE "Nekrassoff-Nevstrueff-Manikin, Das Lied des armen Pilgers (Song Of The Needy ..."
PERFORMER "Feodor Chaliapin"
FLAGS DCP
INDEX 01 00:00:00
FILE "Feodor Chaliapin - sings Russian Folk Songs - 10. Glinka, Zweifel (Doubt).wav" WAVE
TRACK 10 AUDIO
TITLE "Glinka, Zweifel (Doubt)"
PERFORMER "Feodor Chaliapin"
FLAGS DCP
INDEX 01 00:00:00
FILE "Feodor Chaliapin - sings Russian Folk Songs - 11. Dargomyschsky, Der alte Corporal (The Old Corporal).wav" WAVE
TRACK 11 AUDIO
TITLE "Dargomyschsky, Der alte Corporal (The Old Corporal)"
PERFORMER "Feodor Chaliapin"
FLAGS DCP
INDEX 01 00:00:00
FILE "Feodor Chaliapin - sings Russian Folk Songs - 12. Eh! Vanka (Crazy- Headed John).wav" WAVE
TRACK 12 AUDIO
TITLE "Eh! Vanka (Crazy- Headed John)"
PERFORMER "Feodor Chaliapin"
FLAGS DCP
INDEX 01 00:00:00
FILE "Feodor Chaliapin - sings Russian Folk Songs - 13. Malashkin, Oh, Could I But Express In Song.wav" WAVE
TRACK 13 AUDIO
TITLE "Malashkin, Oh, Could I But Express In Song"
PERFORMER "Feodor Chaliapin"
FLAGS DCP
INDEX 01 00:00:00
FILE "Feodor Chaliapin - sings Russian Folk Songs - 14. Mashenka (They Won't Let Masha Walk By The Brook).wav" WAVE
TRACK 14 AUDIO
TITLE "Mashenka (They Won't Let Masha Walk By The Brook)"
PERFORMER "Feodor Chaliapin"
FLAGS DCP
INDEX 01 00:00:00
FILE "Feodor Chaliapin - sings Russian Folk Songs - 15. Glinka, Nachtliche Parade (The Midnight Review).wav" WAVE
TRACK 15 AUDIO
TITLE "Glinka, Nachtliche Parade (The Midnight Review)"
PERFORMER "Feodor Chaliapin"
FLAGS DCP
INDEX 01 00:00:00
FILE "Feodor Chaliapin - sings Russian Folk Songs - 16. Als der Konig zog zu Feld (When the King Went Forth To War).wav" WAVE
TRACK 16 AUDIO
TITLE "Als der Konig zog zu Feld (When the King Went Forth To War)"
PERFORMER "Feodor Chaliapin"
FLAGS DCP
INDEX 01 00:00:00
FILE "Feodor Chaliapin - sings Russian Folk Songs - 17. Rubinstein, Persisches Liebeslied (Persian Love Song - The Turbulent Water of Kur).wav" WAVE
TRACK 17 AUDIO
TITLE "Rubinstein, Persisches Liebeslied (Persian Love Song: The Turbulent Water of ..."
PERFORMER "Feodor Chaliapin"
FLAGS DCP
INDEX 01 00:00:00
FILE "Feodor Chaliapin - sings Russian Folk Songs - 18. Mussorgsky, Flohlied (Song Of The Flea).wav" WAVE
TRACK 18 AUDIO
TITLE "Mussorgsky, Flohlied (Song Of The Flea)"
PERFORMER "Feodor Chaliapin"
FLAGS DCP
INDEX 01 00:00:00



Показать сообщения:    

Текущее время: 10-Дек 00:20

Часовой пояс: UTC + 3


Вы не можете начинать темы
Вы не можете отвечать на сообщения
Вы не можете редактировать свои сообщения
Вы не можете удалять свои сообщения
Вы не можете голосовать в опросах
Вы не можете прикреплять файлы к сообщениям
Вы не можете скачивать файлы